<?xml version="1.0" standalone="no"?> 
<!DOCTYPE svg PUBLIC "-//W3C//DTD SVG 1.1//EN" "http://www.w3.org/Graphics/SVG/1.1/DTD/svg11.dtd" >
<svg xmlns="http://www.w3.org/2000/svg">
<defs>
  <font id="heroicons" horiz-adv-x="24">
    <font-face font-family="heroicons"
      units-per-em="1000" ascent="1000"
      descent="0" />
    <missing-glyph horiz-adv-x="0" />
    <glyph glyph-name="icon-announcement"
      unicode="&#xF101;"
      horiz-adv-x="1000" d=" M541.6666666666666 333.3333333333334V125A41.66666666666666 41.66666666666666 0 0 0 500 83.3333333333334H375L250 333.3333333333334A83.33333333333331 83.33333333333331 0 0 0 166.6666666666667 416.6666666666668A83.33333333333331 83.33333333333331 0 0 0 83.3333333333333 500V583.3333333333334C83.3333333333333 629.1666666666667 120.8333333333333 666.6666666666667 166.6666666666667 666.6666666666667C166.6666666666667 712.5 204.1666666666667 750 250 750H566.25L732.9166666666666 916.6666666666666H833.3333333333333A83.33333333333331 83.33333333333331 0 0 0 916.6666666666666 833.3333333333334V250A83.33333333333331 83.33333333333331 0 0 0 833.3333333333333 166.6666666666668H732.9166666666666L566.25 333.3333333333334H541.6666666666666zM541.6666666666666 416.6666666666668H600.4166666666666L767.0833333333333 250H833.3333333333333V833.3333333333334H767.0833333333333L600.4166666666666 666.6666666666667H541.6666666666666V416.6666666666668zM458.3333333333333 416.6666666666668V666.6666666666667H250V583.3333333333334H166.6666666666667V500H250V416.6666666666668H458.3333333333333zM458.3333333333333 333.3333333333334H343.3333333333333L426.6666666666667 166.6666666666668H458.3333333333333V333.3333333333334z" />
    <glyph glyph-name="icon-archive"
      unicode="&#xF102;"
      horiz-adv-x="1000" d=" M833.3333333333333 625V208.3333333333334A83.33333333333331 83.33333333333331 0 0 0 750 125H250A83.33333333333331 83.33333333333331 0 0 0 166.6666666666667 208.3333333333334V625A83.33333333333331 83.33333333333331 0 0 0 83.3333333333333 708.3333333333334V791.6666666666667C83.3333333333333 837.5 120.8333333333333 875 166.6666666666667 875H833.3333333333333A83.33333333333331 83.33333333333331 0 0 0 916.6666666666666 791.6666666666667V708.3333333333334A83.33333333333331 83.33333333333331 0 0 0 833.3333333333333 625zM833.3333333333333 708.3333333333334V791.6666666666667H166.6666666666667V708.3333333333334H833.3333333333333zM250 625V208.3333333333334H750V625H250zM416.6666666666667 541.6666666666667H583.3333333333333A41.66666666666666 41.66666666666666 0 0 0 583.3333333333333 458.3333333333334H416.6666666666667A41.66666666666666 41.66666666666666 0 0 0 416.6666666666667 541.6666666666667z" />
    <glyph glyph-name="icon-arrow-down"
      unicode="&#xF103;"
      horiz-adv-x="1000" d=" M458.3333333333333 225.4166666666668V875A41.66666666666666 41.66666666666666 0 0 0 541.6666666666666 875V225.4166666666668L762.5 446.2500000000001A41.66666666666666 41.66666666666666 0 0 0 820.8333333333333 387.0833333333334L529.1666666666666 95.4166666666666A41.66666666666666 41.66666666666666 0 0 0 470.8333333333333 95.4166666666666L179.1666666666666 387.0833333333334A41.66666666666666 41.66666666666666 0 0 0 237.5 446.25L458.3333333333333 225.4166666666668z" />
    <glyph glyph-name="icon-arrow-left"
      unicode="&#xF104;"
      horiz-adv-x="1000" d=" M225.4166666666667 541.6666666666667H875A41.66666666666666 41.66666666666666 0 0 0 875 458.3333333333334H225.4166666666667L446.25 237.5A41.66666666666666 41.66666666666666 0 0 0 387.0833333333334 179.1666666666668L95.4166666666667 470.8333333333334A41.66666666666666 41.66666666666666 0 0 0 95.4166666666667 529.1666666666667L387.0833333333334 820.8333333333334A41.66666666666666 41.66666666666666 0 0 0 446.25 762.5L225 541.6666666666667z" />
    <glyph glyph-name="icon-arrow-right"
      unicode="&#xF105;"
      horiz-adv-x="1000" d=" M774.5833333333333 458.3333333333334H125A41.66666666666666 41.66666666666666 0 0 0 125 541.6666666666667H774.5833333333333L553.7499999999999 762.5A41.66666666666666 41.66666666666666 0 1 0 612.9166666666666 820.8333333333333L904.5833333333334 529.1666666666667A41.66666666666666 41.66666666666666 0 0 0 904.5833333333334 470.8333333333334L612.9166666666666 179.1666666666666A41.66666666666666 41.66666666666666 0 0 0 553.75 237.4999999999999L774.5833333333333 458.3333333333333z" />
    <glyph glyph-name="icon-arrow-up"
      unicode="&#xF106;"
      horiz-adv-x="1000" d=" M541.6666666666666 774.5833333333334V125A41.66666666666666 41.66666666666666 0 0 0 458.3333333333333 125V774.5833333333334L237.5 553.75A41.66666666666666 41.66666666666666 0 1 0 179.1666666666667 612.9166666666666L470.8333333333333 904.5833333333331A41.66666666666666 41.66666666666666 0 0 0 529.1666666666666 904.5833333333331L820.8333333333334 612.9166666666666A41.66666666666666 41.66666666666666 0 1 0 762.5000000000001 553.75L541.6666666666666 775z" />
    <glyph glyph-name="icon-at-symbol"
      unicode="&#xF107;"
      horiz-adv-x="1000" d=" M650 355.4166666666667A207.91666666666663 207.91666666666663 0 0 0 291.6666666666667 500A208.33333333333334 208.33333333333334 0 0 0 708.3333333333333 500V437.5A62.5 62.5 0 1 1 833.3333333333333 437.5V500A333.33333333333326 333.33333333333326 0 1 1 627.4999999999999 191.6666666666668A41.66666666666666 41.66666666666666 0 1 0 659.5833333333333 115.0000000000001A416.6666666666667 416.6666666666667 0 1 0 916.6666666666666 500V437.5A145.83333333333334 145.83333333333334 0 0 0 650 355.4166666666667zM500 375A125 125 0 1 1 500 625A125 125 0 0 1 500 375z" />
    <glyph glyph-name="icon-book"
      unicode="&#xF108;"
      horiz-adv-x="1000" d=" M291.6666666666667 791.6666666666667H208.3333333333333V208.3333333333334H791.6666666666666V791.6666666666667H708.3333333333333V375A41.66666666666666 41.66666666666666 0 0 0 647.9166666666666 337.5L500 412.0833333333334L352.0833333333333 338.3333333333334A41.66666666666666 41.66666666666666 0 0 0 291.6666666666667 375V791.6666666666667zM208.3333333333333 875H791.6666666666666A83.33333333333331 83.33333333333331 0 0 0 875 791.6666666666667V208.3333333333334A83.33333333333331 83.33333333333331 0 0 0 791.6666666666666 125H208.3333333333333A83.33333333333331 83.33333333333331 0 0 0 125 208.3333333333334V791.6666666666667C125 837.5 162.5 875 208.3333333333333 875zM375 791.6666666666667V442.5L481.25 495.4166666666666A41.66666666666666 41.66666666666666 0 0 0 518.75 495.4166666666666L625 442.5V791.6666666666667H375z" />
    <glyph glyph-name="icon-bookmark"
      unicode="&#xF109;"
      horiz-adv-x="1000" d=" M500 224.1666666666666L227.0833333333333 87.9166666666667A41.66666666666666 41.66666666666666 0 0 0 166.6666666666667 125V833.3333333333334C166.6666666666667 879.1666666666666 204.1666666666667 916.6666666666666 250 916.6666666666666H750A83.33333333333331 83.33333333333331 0 0 0 833.3333333333333 833.3333333333334V125A41.66666666666666 41.66666666666666 0 0 0 772.9166666666666 87.5000000000001L500 224.5833333333334zM750 833.3333333333334H250V192.4999999999999L481.25 307.9166666666667A41.66666666666666 41.66666666666666 0 0 0 518.75 307.9166666666667L750 192.5000000000001V833.3333333333334z" />
    <glyph glyph-name="icon-briefcase"
      unicode="&#xF10A;"
      horiz-adv-x="1000" d=" M333.3333333333333 708.3333333333334V791.6666666666667C333.3333333333333 837.5 370.8333333333333 875 416.6666666666667 875H583.3333333333333A83.33333333333331 83.33333333333331 0 0 0 666.6666666666666 791.6666666666667V708.3333333333334H833.3333333333333A83.33333333333331 83.33333333333331 0 0 0 916.6666666666666 625V208.3333333333334A83.33333333333331 83.33333333333331 0 0 0 833.3333333333333 125H166.6666666666667A83.33333333333331 83.33333333333331 0 0 0 83.3333333333333 208.3333333333334V625C83.3333333333333 670.8333333333333 120.8333333333333 708.3333333333334 166.6666666666667 708.3333333333334H333.3333333333333zM666.6666666666666 625H333.3333333333333V208.3333333333334H666.6666666666666V625zM750 625V208.3333333333334H833.3333333333333V625H750zM250 625H166.6666666666667V208.3333333333334H250V625zM416.6666666666667 708.3333333333334H583.3333333333333V791.6666666666667H416.6666666666667V708.3333333333334z" />
    <glyph glyph-name="icon-browser"
      unicode="&#xF10B;"
      horiz-adv-x="1000" d=" M166.6666666666667 875H833.3333333333333A83.33333333333331 83.33333333333331 0 0 0 916.6666666666666 791.6666666666667V208.3333333333334A83.33333333333331 83.33333333333331 0 0 0 833.3333333333333 125H166.6666666666667A83.33333333333331 83.33333333333331 0 0 0 83.3333333333333 208.3333333333334V791.6666666666667C83.3333333333333 837.5 120.8333333333333 875 166.6666666666667 875zM833.3333333333333 708.3333333333334V791.6666666666667H166.6666666666667V708.3333333333334H833.3333333333333zM833.3333333333333 625H166.6666666666667V208.3333333333334H833.3333333333333V625z" />
    <glyph glyph-name="icon-building"
      unicode="&#xF10C;"
      horiz-adv-x="1000" d=" M791.6666666666666 583.3333333333334V333.3333333333334A83.33333333333331 83.33333333333331 0 0 0 875 250V166.6666666666668A83.33333333333331 83.33333333333331 0 0 0 791.6666666666666 83.3333333333334H208.3333333333333A83.33333333333331 83.33333333333331 0 0 0 125 166.6666666666668V250C125 295.8333333333335 162.5 333.3333333333334 208.3333333333333 333.3333333333334V583.3333333333334A83.33333333333331 83.33333333333331 0 0 0 125 666.6666666666667V708.3333333333334A41.66666666666666 41.66666666666666 0 0 0 147.9166666666667 745.8333333333334L481.25 912.5A41.66666666666666 41.66666666666666 0 0 0 518.75 912.5L852.0833333333334 745.8333333333334A41.66666666666666 41.66666666666666 0 0 0 875 708.3333333333334V666.6666666666667A83.33333333333331 83.33333333333331 0 0 0 791.6666666666666 583.3333333333334zM541.6666666666666 583.3333333333334H458.3333333333333V333.3333333333334H541.6666666666666V583.3333333333334zM708.3333333333333 583.3333333333334H625V333.3333333333334H708.3333333333333V583.3333333333334zM375 583.3333333333334H291.6666666666667V333.3333333333334H375V583.3333333333334zM208.3333333333333 682.5V666.6666666666667H791.6666666666666V682.5L500 828.3333333333334L208.3333333333333 682.5zM208.3333333333333 250V166.6666666666668H791.6666666666666V250H208.3333333333333z" />
    <glyph glyph-name="icon-calander"
      unicode="&#xF10D;"
      horiz-adv-x="1000" d=" M708.3333333333333 833.3333333333334H791.6666666666666A83.33333333333331 83.33333333333331 0 0 0 875 750V166.6666666666668A83.33333333333331 83.33333333333331 0 0 0 791.6666666666666 83.3333333333334H208.3333333333333A83.33333333333331 83.33333333333331 0 0 0 125 166.6666666666668V750C125 795.8333333333334 162.5 833.3333333333334 208.3333333333333 833.3333333333334H291.6666666666667V875A41.66666666666666 41.66666666666666 0 1 0 375 875V833.3333333333334H625V875A41.66666666666666 41.66666666666666 0 0 0 708.3333333333333 875V833.3333333333334zM625 750H375V708.3333333333334A41.66666666666666 41.66666666666666 0 1 0 291.6666666666667 708.3333333333334V750H208.3333333333333V583.3333333333334H791.6666666666666V750H708.3333333333333V708.3333333333334A41.66666666666666 41.66666666666666 0 0 0 625 708.3333333333334V750zM791.6666666666666 500H208.3333333333333V166.6666666666668H791.6666666666666V500z" />
    <glyph glyph-name="icon-call-incoming"
      unicode="&#xF10E;"
      horiz-adv-x="1000" d=" M543.3333333333333 387.9166666666668L587.9166666666666 477.0833333333334A41.66666666666666 41.66666666666666 0 0 0 637.9166666666666 497.9166666666667L887.9166666666665 414.5833333333334A41.66666666666666 41.66666666666666 0 0 0 916.6666666666666 375V166.6666666666668A83.33333333333331 83.33333333333331 0 0 0 833.3333333333333 83.3333333333334H750A666.6666666666665 666.6666666666665 0 0 0 83.3333333333333 750V833.3333333333334C83.3333333333333 879.1666666666666 120.8333333333333 916.6666666666666 166.6666666666667 916.6666666666666H375A41.66666666666666 41.66666666666666 0 0 0 414.5833333333333 888.3333333333334L497.9166666666666 638.3333333333334A41.66666666666666 41.66666666666666 0 0 0 477.0833333333333 587.9166666666667L387.5 543.3333333333333A418.75 418.75 0 0 1 542.9166666666666 387.9166666666667zM345 833.3333333333334H166.6666666666667V750A583.3333333333334 583.3333333333334 0 0 1 750 166.6666666666668H833.3333333333333V345.0000000000001L645.8333333333333 407.5000000000001L599.1666666666666 313.3333333333335A41.66666666666666 41.66666666666666 0 0 0 544.9999999999999 294.1666666666669A501.66666666666663 501.66666666666663 0 0 0 294.1666666666666 544.5833333333335A41.66666666666666 41.66666666666666 0 0 0 313.3333333333333 598.7500000000001L407.4999999999999 646.2500000000002L345 833.3333333333334zM845.4166666666666 904.1666666666669A41.66666666666666 41.66666666666666 0 0 0 904.5833333333334 845.8333333333334L724.9999999999999 666.6666666666667H833.3333333333333A41.66666666666666 41.66666666666666 0 0 0 833.3333333333333 583.3333333333334H625A41.66666666666666 41.66666666666666 0 0 0 583.3333333333333 625V833.3333333333334A41.66666666666666 41.66666666666666 0 0 0 666.6666666666666 833.3333333333334V725.4166666666667L845.8333333333334 904.5833333333334z" />
    <glyph glyph-name="icon-call-outgoing"
      unicode="&#xF10F;"
      horiz-adv-x="1000" d=" M543.3333333333333 387.9166666666668L587.9166666666666 477.0833333333334A41.66666666666666 41.66666666666666 0 0 0 637.9166666666666 497.9166666666667L887.9166666666665 414.5833333333334A41.66666666666666 41.66666666666666 0 0 0 916.6666666666666 375V166.6666666666668A83.33333333333331 83.33333333333331 0 0 0 833.3333333333333 83.3333333333334H750A666.6666666666665 666.6666666666665 0 0 0 83.3333333333333 750V833.3333333333334C83.3333333333333 879.1666666666666 120.8333333333333 916.6666666666666 166.6666666666667 916.6666666666666H375A41.66666666666666 41.66666666666666 0 0 0 414.5833333333333 888.3333333333334L497.9166666666666 638.3333333333334A41.66666666666666 41.66666666666666 0 0 0 477.0833333333333 587.9166666666667L387.5 543.3333333333333A418.75 418.75 0 0 1 542.9166666666666 387.9166666666667zM345 833.3333333333334H166.6666666666667V750A583.3333333333334 583.3333333333334 0 0 1 750 166.6666666666668H833.3333333333333V345.0000000000001L645.8333333333333 407.5000000000001L599.1666666666666 313.3333333333335A41.66666666666666 41.66666666666666 0 0 0 544.9999999999999 294.1666666666669A501.66666666666663 501.66666666666663 0 0 0 294.1666666666666 544.5833333333335A41.66666666666666 41.66666666666666 0 0 0 313.3333333333333 598.7500000000001L407.4999999999999 646.2500000000002L345 833.3333333333334zM654.5833333333333 595.8333333333334A41.66666666666666 41.66666666666666 0 1 0 595.4166666666666 654.1666666666667L775 833.3333333333334H666.6666666666666A41.66666666666666 41.66666666666666 0 0 0 666.6666666666666 916.6666666666666H875A41.66666666666666 41.66666666666666 0 0 0 916.6666666666666 875V666.6666666666667A41.66666666666666 41.66666666666666 0 0 0 833.3333333333333 666.6666666666667V774.5833333333334L654.1666666666666 595.4166666666666z" />
    <glyph glyph-name="icon-call"
      unicode="&#xF110;"
      horiz-adv-x="1000" d=" M543.3333333333333 387.9166666666668L587.9166666666666 477.0833333333334A41.66666666666666 41.66666666666666 0 0 0 637.9166666666666 497.9166666666667L887.9166666666665 414.5833333333334A41.66666666666666 41.66666666666666 0 0 0 916.6666666666666 375V166.6666666666668A83.33333333333331 83.33333333333331 0 0 0 833.3333333333333 83.3333333333334H750A666.6666666666665 666.6666666666665 0 0 0 83.3333333333333 750V833.3333333333334C83.3333333333333 879.1666666666666 120.8333333333333 916.6666666666666 166.6666666666667 916.6666666666666H375A41.66666666666666 41.66666666666666 0 0 0 414.5833333333333 888.3333333333334L497.9166666666666 638.3333333333334A41.66666666666666 41.66666666666666 0 0 0 477.0833333333333 587.9166666666667L387.5 543.3333333333333A418.75 418.75 0 0 1 542.9166666666666 387.9166666666667zM345 833.3333333333334H166.6666666666667V750A583.3333333333334 583.3333333333334 0 0 1 750 166.6666666666668H833.3333333333333V345.0000000000001L645.8333333333333 407.5000000000001L599.1666666666666 313.3333333333335A41.66666666666666 41.66666666666666 0 0 0 544.9999999999999 294.1666666666669A501.66666666666663 501.66666666666663 0 0 0 294.1666666666666 544.5833333333335A41.66666666666666 41.66666666666666 0 0 0 313.3333333333333 598.7500000000001L407.4999999999999 646.2500000000002L345 833.3333333333334z" />
    <glyph glyph-name="icon-camera"
      unicode="&#xF111;"
      horiz-adv-x="1000" d=" M833.3333333333333 708.3333333333334A83.33333333333331 83.33333333333331 0 0 0 916.6666666666666 625V208.3333333333334A83.33333333333331 83.33333333333331 0 0 0 833.3333333333333 125H166.6666666666667A83.33333333333331 83.33333333333331 0 0 0 83.3333333333333 208.3333333333334V625C83.3333333333333 670.8333333333333 120.8333333333333 708.3333333333334 166.6666666666667 708.3333333333334H265.8333333333333L337.9166666666667 852.0833333333334A41.66666666666666 41.66666666666666 0 0 0 375 875H625A41.66666666666666 41.66666666666666 0 0 0 662.5 852.0833333333334L733.7499999999999 708.3333333333334H833.3333333333333zM400.8333333333333 791.6666666666667L328.75 647.9166666666667A41.66666666666666 41.66666666666666 0 0 0 291.6666666666667 625H166.6666666666667V208.3333333333334H833.3333333333333V625H708.3333333333333A41.66666666666666 41.66666666666666 0 0 0 670.8333333333334 647.9166666666667L599.5833333333334 791.6666666666667H400.8333333333333zM500 291.6666666666668A166.66666666666663 166.66666666666663 0 1 0 500 625A166.66666666666663 166.66666666666663 0 0 0 500 291.6666666666668zM500 375A83.33333333333331 83.33333333333331 0 1 1 500 541.6666666666667A83.33333333333331 83.33333333333331 0 0 1 500 375z" />
    <glyph glyph-name="icon-cart"
      unicode="&#xF112;"
      horiz-adv-x="1000" d=" M708.3333333333333 333.3333333333334A125 125 0 1 0 590.4166666666666 250H409.5833333333333A125 125 0 1 0 175.4166666666667 254.1666666666668A125 125 0 0 0 208.3333333333333 500V833.3333333333334H125A41.66666666666666 41.66666666666666 0 1 0 125 916.6666666666666H250A41.66666666666666 41.66666666666666 0 0 0 291.6666666666667 875V833.3333333333334H875A41.66666666666666 41.66666666666666 0 0 0 912.4999999999998 772.9166666666667L745.8333333333333 439.5833333333334A41.66666666666666 41.66666666666666 0 0 0 708.3333333333333 416.6666666666668H208.3333333333333A41.66666666666666 41.66666666666666 0 0 1 208.3333333333333 333.3333333333334H708.3333333333333zM291.6666666666667 500H682.5000000000001L807.5000000000001 750H291.6666666666667V500zM291.6666666666667 166.6666666666668A41.66666666666666 41.66666666666666 0 1 1 291.6666666666667 250A41.66666666666666 41.66666666666666 0 0 1 291.6666666666667 166.6666666666668zM708.3333333333333 166.6666666666668A41.66666666666666 41.66666666666666 0 1 1 708.3333333333333 250A41.66666666666666 41.66666666666666 0 0 1 708.3333333333333 166.6666666666668z" />
    <glyph glyph-name="icon-chat"
      unicode="&#xF113;"
      horiz-adv-x="1000" d=" M250 416.6666666666668H166.6666666666667A83.33333333333331 83.33333333333331 0 0 0 83.3333333333333 500V833.3333333333334C83.3333333333333 879.1666666666666 120.8333333333333 916.6666666666666 166.6666666666667 916.6666666666666H666.6666666666666A83.33333333333331 83.33333333333331 0 0 0 750 833.3333333333334V750H833.3333333333333A83.33333333333331 83.33333333333331 0 0 0 916.6666666666666 666.6666666666667V125A41.66666666666666 41.66666666666666 0 0 0 845.8333333333334 95.8333333333334L690.8333333333333 250H333.3333333333333A83.33333333333331 83.33333333333331 0 0 0 250 333.3333333333334V416.6666666666668zM250 500V666.6666666666667C250 712.5 287.5 750 333.3333333333333 750H666.6666666666666V833.3333333333334H166.6666666666667V500H250zM833.3333333333333 666.6666666666667H333.3333333333333V333.3333333333334H708.3333333333333A41.66666666666666 41.66666666666666 0 0 0 737.4999999999999 320.8333333333334L833.3333333333333 225.4166666666668V666.6666666666667z" />
    <glyph glyph-name="icon-check-circle"
      unicode="&#xF114;"
      horiz-adv-x="1000" d=" M500 83.3333333333334A416.6666666666667 416.6666666666667 0 1 0 500 916.6666666666666A416.6666666666667 416.6666666666667 0 0 0 500 83.3333333333334zM500 166.6666666666668A333.33333333333326 333.33333333333326 0 1 1 500 833.3333333333334A333.33333333333326 333.33333333333326 0 0 1 500 166.6666666666668zM404.1666666666667 529.1666666666667L458.3333333333333 475.4166666666667L595.8333333333334 612.9166666666667A41.66666666666666 41.66666666666666 0 0 0 654.1666666666666 553.75L487.5 387.0833333333334A41.66666666666666 41.66666666666666 0 0 0 429.1666666666667 387.0833333333334L345.8333333333334 470.4166666666667A41.66666666666666 41.66666666666666 0 0 0 404.1666666666667 529.5833333333334z" />
    <glyph glyph-name="icon-cheveron-down"
      unicode="&#xF115;"
      horiz-adv-x="1000" d=" M637.5 612.5A41.66666666666666 41.66666666666666 0 0 0 695.8333333333333 554.1666666666666L529.1666666666666 387.5A41.66666666666666 41.66666666666666 0 0 0 470.8333333333333 387.5L304.1666666666667 554.1666666666666A41.66666666666666 41.66666666666666 0 0 0 362.5 612.5L500 475.4166666666667L637.5 612.9166666666667z" />
    <glyph glyph-name="icon-cheveron-left"
      unicode="&#xF116;"
      horiz-adv-x="1000" d=" M612.4999999999999 362.5A41.66666666666666 41.66666666666666 0 0 0 554.1666666666666 304.1666666666668L387.5 470.8333333333334A41.66666666666666 41.66666666666666 0 0 0 387.5 529.1666666666667L554.1666666666666 695.8333333333334A41.66666666666666 41.66666666666666 0 0 0 612.4999999999999 637.5L475.8333333333333 500L613.3333333333333 362.5z" />
    <glyph glyph-name="icon-cheveron-right"
      unicode="&#xF117;"
      horiz-adv-x="1000" d=" M387.5 637.5A41.66666666666666 41.66666666666666 0 0 0 445.8333333333334 695.8333333333334L612.5 529.1666666666667A41.66666666666666 41.66666666666666 0 0 0 612.5 470.8333333333334L445.8333333333334 304.1666666666668A41.66666666666666 41.66666666666666 0 0 0 387.5 362.5000000000001L524.5833333333333 500L387.0833333333333 637.5z" />
    <glyph glyph-name="icon-cheveron-up"
      unicode="&#xF118;"
      horiz-adv-x="1000" d=" M362.5 387.5000000000001A41.66666666666666 41.66666666666666 0 0 0 304.1666666666667 445.8333333333334L470.8333333333333 612.5A41.66666666666666 41.66666666666666 0 0 0 529.1666666666666 612.5L695.8333333333333 445.8333333333334A41.66666666666666 41.66666666666666 0 0 0 637.4999999999999 387.5000000000001L500 524.1666666666667L362.5 386.6666666666668z" />
    <glyph glyph-name="icon-clip"
      unicode="&#xF119;"
      horiz-adv-x="1000" d=" M838.3333333333334 502.0833333333334L564.1666666666666 227.5000000000001A208.33333333333334 208.33333333333334 0 1 0 269.1666666666667 522.0833333333335L543.75 797.0833333333334A125 125 0 0 0 720.4166666666666 620L446.25 345.4166666666668A41.66666666666666 41.66666666666666 0 1 0 387.0833333333333 404.5833333333334L661.6666666666666 678.75A41.66666666666666 41.66666666666666 0 0 1 602.4999999999999 737.9166666666667L328.3333333333333 463.3333333333334A125 125 0 0 1 504.9999999999999 286.6666666666669L779.5833333333334 560.8333333333335A208.33333333333334 208.33333333333334 0 0 1 484.5833333333333 855.8333333333335L210.4166666666667 580.8333333333335A291.6666666666667 291.6666666666667 0 0 1 622.9166666666666 168.3333333333335L897.4999999999999 443.3333333333335A41.66666666666666 41.66666666666666 0 0 1 838.3333333333331 501.6666666666668z" />
    <glyph glyph-name="icon-clipboard"
      unicode="&#xF11A;"
      horiz-adv-x="1000" d=" M333.3333333333333 833.3333333333334C333.3333333333333 879.1666666666666 370.8333333333333 916.6666666666666 416.6666666666667 916.6666666666666H583.3333333333333A83.33333333333331 83.33333333333331 0 0 0 666.6666666666666 833.3333333333334H750A83.33333333333331 83.33333333333331 0 0 0 833.3333333333333 750V166.6666666666668A83.33333333333331 83.33333333333331 0 0 0 750 83.3333333333334H250A83.33333333333331 83.33333333333331 0 0 0 166.6666666666667 166.6666666666668V750C166.6666666666667 795.8333333333334 204.1666666666667 833.3333333333334 250 833.3333333333334H333.3333333333333zM333.3333333333333 750H250V166.6666666666668H750V750H666.6666666666666A83.33333333333331 83.33333333333331 0 0 0 583.3333333333333 666.6666666666667H416.6666666666667A83.33333333333331 83.33333333333331 0 0 0 333.3333333333333 750zM416.6666666666667 833.3333333333334V750H583.3333333333333V833.3333333333334H416.6666666666667z" />
    <glyph glyph-name="icon-clock"
      unicode="&#xF11B;"
      horiz-adv-x="1000" d=" M500 83.3333333333334A416.6666666666667 416.6666666666667 0 1 0 500 916.6666666666666A416.6666666666667 416.6666666666667 0 0 0 500 83.3333333333334zM500 166.6666666666668A333.33333333333326 333.33333333333326 0 1 1 500 833.3333333333334A333.33333333333326 333.33333333333326 0 0 1 500 166.6666666666668zM541.6666666666666 517.0833333333334L647.4999999999999 411.6666666666668A41.66666666666666 41.66666666666666 0 0 0 588.3333333333333 352.5000000000001L470.8333333333333 470.8333333333334A41.66666666666666 41.66666666666666 0 0 0 458.3333333333333 500V666.6666666666667A41.66666666666666 41.66666666666666 0 0 0 541.6666666666666 666.6666666666667V517.0833333333334z" />
    <glyph glyph-name="icon-code"
      unicode="&#xF11C;"
      horiz-adv-x="1000" d=" M857.9166666666666 500L720.4166666666666 637.5A41.66666666666666 41.66666666666666 0 1 0 779.5833333333334 695.8333333333334L946.25 529.1666666666667A41.66666666666666 41.66666666666666 0 0 0 946.25 470.8333333333334L779.5833333333334 304.1666666666668A41.66666666666666 41.66666666666666 0 0 0 720.4166666666666 362.5000000000001L857.9166666666666 500zM141.6666666666667 500L279.1666666666667 362.5A41.66666666666666 41.66666666666666 0 0 0 220 304.1666666666668L53.3333333333333 470.8333333333334A41.66666666666666 41.66666666666666 0 0 0 53.3333333333333 529.1666666666667L220 695.8333333333334A41.66666666666666 41.66666666666666 0 0 0 279.1666666666667 637.5L141.6666666666667 500zM456.6666666666666 156.6666666666666A41.66666666666666 41.66666666666666 0 0 0 375.8333333333333 176.6666666666666L542.5 843.3333333333333A41.66666666666666 41.66666666666666 0 1 0 623.3333333333333 823.3333333333333L456.6666666666666 156.6666666666666z" />
    <glyph glyph-name="icon-cog"
      unicode="&#xF11D;"
      horiz-adv-x="1000" d=" M375 809.1666666666667V833.3333333333334C375 879.1666666666666 412.5 916.6666666666666 458.3333333333333 916.6666666666666H541.6666666666666A83.33333333333331 83.33333333333331 0 0 0 625 833.3333333333334V809.1666666666667A333.33333333333326 333.33333333333326 0 0 0 705 762.9166666666666L725.8333333333334 775A83.33333333333331 83.33333333333331 0 0 0 840.0000000000001 744.5833333333333L881.6666666666667 672.0833333333333A83.33333333333331 83.33333333333331 0 0 0 851.2500000000001 558.3333333333333L830.4166666666667 546.25A335.8333333333333 335.8333333333333 0 0 0 830.4166666666667 453.75L851.2500000000001 441.25A83.33333333333331 83.33333333333331 0 0 0 881.6666666666667 327.9166666666667L840.0000000000001 255.4166666666667A83.33333333333331 83.33333333333331 0 0 0 726.2500000000001 225L705.4166666666667 237.5A333.33333333333326 333.33333333333326 0 0 0 625 190.4166666666668V166.6666666666668A83.33333333333331 83.33333333333331 0 0 0 541.6666666666666 83.3333333333334H458.3333333333333A83.33333333333331 83.33333333333331 0 0 0 375 166.6666666666668V190.8333333333333A333.33333333333326 333.33333333333326 0 0 0 295 237.0833333333333L274.1666666666667 225A83.33333333333331 83.33333333333331 0 0 0 160 255.4166666666667L118.3333333333333 327.9166666666667A83.33333333333331 83.33333333333331 0 0 0 148.75 441.6666666666667L169.5833333333334 453.7499999999999A335.8333333333333 335.8333333333333 0 0 0 169.5833333333334 546.25L148.75 558.75A83.33333333333331 83.33333333333331 0 0 0 118.3333333333334 672.0833333333333L160 744.5833333333333A83.33333333333331 83.33333333333331 0 0 0 273.75 775L294.5833333333333 762.5A333.33333333333326 333.33333333333326 0 0 0 375 809.5833333333334zM328.3333333333333 681.6666666666667L305.8333333333333 660.4166666666667L232.0833333333334 702.9166666666666L190.4166666666667 630.4166666666666L263.75 588.3333333333333L256.6666666666667 557.9166666666666A250.83333333333331 250.83333333333331 0 0 1 256.6666666666667 442.0833333333334L263.75 411.6666666666667L190.4166666666667 369.5833333333334L232.0833333333334 297.0833333333334L305.8333333333333 339.5833333333333L328.3333333333333 318.3333333333333A250 250 0 0 1 428.3333333333333 260L458.3333333333333 251.6666666666667V166.6666666666668H541.6666666666666V251.6666666666667L571.25 260A250 250 0 0 1 671.6666666666666 318.3333333333333L694.1666666666666 339.5833333333333L767.9166666666666 297.0833333333332L809.5833333333333 369.5833333333332L736.2499999999999 411.6666666666665L743.3333333333333 442.0833333333332A250.83333333333331 250.83333333333331 0 0 1 743.3333333333333 557.9166666666665L736.2499999999999 588.3333333333333L809.5833333333333 630.4166666666665L767.9166666666666 702.9166666666665L694.1666666666666 660.4166666666665L671.6666666666666 681.6666666666665A250 250 0 0 1 571.6666666666666 739.9999999999998L541.6666666666666 748.3333333333333V833.3333333333334H458.3333333333333V748.3333333333334L428.75 740A250 250 0 0 1 328.3333333333333 681.6666666666667zM500 333.3333333333334A166.66666666666663 166.66666666666663 0 1 0 500 666.6666666666667A166.66666666666663 166.66666666666663 0 0 0 500 333.3333333333334zM500 416.6666666666668A83.33333333333331 83.33333333333331 0 1 1 500 583.3333333333334A83.33333333333331 83.33333333333331 0 0 1 500 416.6666666666668z" />
    <glyph glyph-name="icon-comment"
      unicode="&#xF11E;"
      horiz-adv-x="1000" d=" M83.3333333333333 375V791.6666666666667C83.3333333333333 837.5 120.8333333333333 875 166.6666666666667 875H833.3333333333333A83.33333333333331 83.33333333333331 0 0 0 916.6666666666666 791.6666666666667V166.6666666666668A41.66666666666666 41.66666666666666 0 0 0 845.8333333333334 137.5000000000001L690.8333333333333 291.6666666666668H166.6666666666667A83.33333333333331 83.33333333333331 0 0 0 83.3333333333333 375zM833.3333333333333 791.6666666666667H166.6666666666667V375H708.3333333333333A41.66666666666666 41.66666666666666 0 0 0 737.4999999999999 362.5L833.3333333333333 267.0833333333334V791.6666666666667z" />
    <glyph glyph-name="icon-compass"
      unicode="&#xF11F;"
      horiz-adv-x="1000" d=" M500 83.3333333333334A416.6666666666667 416.6666666666667 0 1 0 500 916.6666666666666A416.6666666666667 416.6666666666667 0 0 0 500 83.3333333333334zM500 166.6666666666668A333.33333333333326 333.33333333333326 0 1 1 500 833.3333333333334A333.33333333333326 333.33333333333326 0 0 1 500 166.6666666666668zM398.3333333333333 627.9166666666667L663.75 716.25A41.66666666666666 41.66666666666666 0 0 0 716.25 663.75L627.9166666666666 398.3333333333333A41.66666666666666 41.66666666666666 0 0 0 601.6666666666666 372.0833333333333L336.25 283.75A41.66666666666666 41.66666666666666 0 0 0 283.75 336.25L372.0833333333333 601.6666666666665A41.66666666666666 41.66666666666666 0 0 0 398.3333333333333 627.9166666666666zM389.1666666666667 389.1666666666668L555.8333333333333 444.5833333333334L610.8333333333333 611.25L444.1666666666667 555.4166666666667L389.1666666666667 388.75z" />
    <glyph glyph-name="icon-currency-dollar"
      unicode="&#xF120;"
      horiz-adv-x="1000" d=" M500 83.3333333333334A416.6666666666667 416.6666666666667 0 1 0 500 916.6666666666666A416.6666666666667 416.6666666666667 0 0 0 500 83.3333333333334zM500 166.6666666666668A333.33333333333326 333.33333333333326 0 1 1 500 833.3333333333334A333.33333333333326 333.33333333333326 0 0 1 500 166.6666666666668zM541.6666666666666 625V541.6666666666667H583.3333333333333A125 125 0 0 0 583.3333333333333 291.6666666666668H541.6666666666666V250A41.66666666666666 41.66666666666666 0 0 0 458.3333333333333 250V291.6666666666668H333.3333333333333A41.66666666666666 41.66666666666666 0 0 0 333.3333333333333 375H458.3333333333333V458.3333333333334H416.6666666666667A125 125 0 0 0 416.6666666666667 708.3333333333334H458.3333333333333V750A41.66666666666666 41.66666666666666 0 0 0 541.6666666666666 750V708.3333333333334H666.6666666666666A41.66666666666666 41.66666666666666 0 0 0 666.6666666666666 625H541.6666666666666zM458.3333333333333 625H416.6666666666667A41.66666666666666 41.66666666666666 0 1 1 416.6666666666667 541.6666666666667H458.3333333333333V625zM541.6666666666666 375H583.3333333333333A41.66666666666666 41.66666666666666 0 0 1 583.3333333333333 458.3333333333334H541.6666666666666V375z" />
    <glyph glyph-name="icon-dashboard"
      unicode="&#xF121;"
      horiz-adv-x="1000" d=" M500 83.3333333333334A416.6666666666667 416.6666666666667 0 1 0 500 916.6666666666666A416.6666666666667 416.6666666666667 0 0 0 500 83.3333333333334zM236.6666666666667 704.1666666666667A331.66666666666663 331.66666666666663 0 0 1 169.1666666666666 541.6666666666667H208.3333333333333A41.66666666666666 41.66666666666666 0 0 0 208.3333333333333 458.3333333333334H169.1666666666667A331.24999999999994 331.24999999999994 0 0 1 224.1666666666667 312.5A414.99999999999994 414.99999999999994 0 0 0 458.3333333333333 414.5833333333334V625A41.66666666666666 41.66666666666666 0 0 0 541.6666666666666 625V414.5833333333334A414.99999999999994 414.99999999999994 0 0 0 775.8333333333334 312.5A331.24999999999994 331.24999999999994 0 0 1 830.8333333333334 458.3333333333334H791.6666666666666A41.66666666666666 41.66666666666666 0 0 0 791.6666666666666 541.6666666666667H830.8333333333334A331.66666666666663 331.66666666666663 0 0 1 763.3333333333333 704.1666666666667L735.8333333333333 676.6666666666667A41.66666666666666 41.66666666666666 0 1 0 676.6666666666667 735.8333333333334L704.5833333333335 763.3333333333334A331.66666666666663 331.66666666666663 0 0 1 541.6666666666666 830.8333333333334V791.6666666666667A41.66666666666666 41.66666666666666 0 0 0 458.3333333333333 791.6666666666667V830.8333333333333C397.5 823.3333333333334 341.6666666666667 799.1666666666666 295.8333333333333 763.3333333333333L323.3333333333333 735.8333333333333A41.66666666666666 41.66666666666666 0 0 0 264.1666666666667 676.6666666666666L236.6666666666667 704.5833333333333zM279.5833333333333 250A332.0833333333333 332.0833333333333 0 0 1 720.4166666666666 250A332.0833333333333 332.0833333333333 0 0 1 279.5833333333333 250z" />
    <glyph glyph-name="icon-desktop"
      unicode="&#xF122;"
      horiz-adv-x="1000" d=" M541.6666666666666 291.6666666666668H458.3333333333333V208.3333333333334H541.6666666666666V291.6666666666668zM625 291.6666666666668V208.3333333333334H708.3333333333333A41.66666666666666 41.66666666666666 0 0 0 708.3333333333333 125H291.6666666666667A41.66666666666666 41.66666666666666 0 0 0 291.6666666666667 208.3333333333334H375V291.6666666666668H166.6666666666667A83.33333333333331 83.33333333333331 0 0 0 83.3333333333333 375V791.6666666666667C83.3333333333333 837.5 120.8333333333333 875 166.6666666666667 875H833.3333333333333A83.33333333333331 83.33333333333331 0 0 0 916.6666666666666 791.6666666666667V375A83.33333333333331 83.33333333333331 0 0 0 833.3333333333333 291.6666666666668H625zM166.6666666666667 791.6666666666667V375H833.3333333333333V791.6666666666667H166.6666666666667z" />
    <glyph glyph-name="icon-discount"
      unicode="&#xF123;"
      horiz-adv-x="1000" d=" M320.8333333333333 737.5L375 684.1666666666667L554.1666666666666 863.3333333333334A41.66666666666666 41.66666666666666 0 0 0 612.5 804.1666666666666L434.1666666666667 625L613.3333333333333 445.8333333333334A41.66666666666666 41.66666666666666 0 0 0 554.1666666666666 387.5L375 565.8333333333334L320.8333333333333 511.6666666666667A125 125 0 1 0 262.5 570.8333333333333L315.8333333333333 625L261.6666666666667 679.1666666666667A125 125 0 1 0 320.8333333333333 737.5zM875 666.6666666666667A41.66666666666666 41.66666666666666 0 0 0 916.6666666666666 625V583.3333333333334A41.66666666666666 41.66666666666666 0 0 0 833.3333333333333 583.3333333333334A41.66666666666666 41.66666666666666 0 0 0 833.3333333333333 666.6666666666667H875zM166.6666666666667 166.6666666666668A41.66666666666666 41.66666666666666 0 0 0 166.6666666666667 83.3333333333334H125A41.66666666666666 41.66666666666666 0 0 0 83.3333333333333 125V166.6666666666668A41.66666666666666 41.66666666666666 0 0 0 166.6666666666667 166.6666666666668zM875 83.3333333333334H833.3333333333333A41.66666666666666 41.66666666666666 0 0 0 833.3333333333333 166.6666666666668A41.66666666666666 41.66666666666666 0 0 0 916.6666666666666 166.6666666666668V125A41.66666666666666 41.66666666666666 0 0 0 875 83.3333333333334zM583.3333333333333 666.6666666666667H666.6666666666666A41.66666666666666 41.66666666666666 0 0 0 666.6666666666666 583.3333333333334H583.3333333333333A41.66666666666666 41.66666666666666 0 0 0 583.3333333333333 666.6666666666667zM875 458.3333333333334A41.66666666666666 41.66666666666666 0 0 0 916.6666666666666 416.6666666666668V333.3333333333334A41.66666666666666 41.66666666666666 0 0 0 833.3333333333333 333.3333333333334V416.6666666666668A41.66666666666666 41.66666666666666 0 0 0 875 458.3333333333334zM583.3333333333333 166.6666666666668H666.6666666666666A41.66666666666666 41.66666666666666 0 0 0 666.6666666666666 83.3333333333334H583.3333333333333A41.66666666666666 41.66666666666666 0 0 0 583.3333333333333 166.6666666666668zM333.3333333333333 166.6666666666668H416.6666666666667A41.66666666666666 41.66666666666666 0 0 0 416.6666666666667 83.3333333333334H333.3333333333333A41.66666666666666 41.66666666666666 0 0 0 333.3333333333333 166.6666666666668zM237.5 429.1666666666668A41.66666666666666 41.66666666666666 0 1 1 179.1666666666667 487.5000000000001A41.66666666666666 41.66666666666666 0 0 1 237.5000000000001 429.1666666666668zM208.3333333333333 750A41.66666666666666 41.66666666666666 0 1 1 208.3333333333333 833.3333333333334A41.66666666666666 41.66666666666666 0 0 1 208.3333333333333 750z" />
    <glyph glyph-name="icon-download"
      unicode="&#xF124;"
      horiz-adv-x="1000" d=" M458.3333333333333 392.0833333333334V875A41.66666666666666 41.66666666666666 0 0 0 541.6666666666666 875V392.0833333333334L679.1666666666666 529.5833333333334A41.66666666666666 41.66666666666666 0 0 0 737.4999999999999 470.4166666666667L529.1666666666666 262.0833333333334A41.66666666666666 41.66666666666666 0 0 0 470.8333333333333 262.0833333333334L262.5 470.4166666666666A41.66666666666666 41.66666666666666 0 0 0 320.8333333333333 529.5833333333333L458.3333333333333 392.0833333333334zM125 291.6666666666668A41.66666666666666 41.66666666666666 0 0 0 208.3333333333333 291.6666666666668V166.6666666666668H791.6666666666666V291.6666666666668A41.66666666666666 41.66666666666666 0 0 0 875 291.6666666666668V166.6666666666668A83.33333333333331 83.33333333333331 0 0 0 791.6666666666666 83.3333333333334H208.3333333333333A83.33333333333331 83.33333333333331 0 0 0 125 166.6666666666668V291.6666666666668z" />
    <glyph glyph-name="icon-duplicate"
      unicode="&#xF125;"
      horiz-adv-x="1000" d=" M708.3333333333333 708.3333333333334H802.0833333333333C842.4999999999999 708.3333333333334 875 675.8333333333333 875 635.4166666666667V197.9166666666668C875 157.5000000000001 842.4999999999999 125 802.0833333333333 125H364.5833333333333C324.1666666666667 125 291.6666666666667 157.5000000000001 291.6666666666667 197.9166666666668V291.6666666666668H197.9166666666667C157.5 291.6666666666668 125 324.1666666666668 125 364.5833333333334V802.0833333333334C125 842.5 157.5 875 197.9166666666667 875H635.4166666666666C675.8333333333333 875 708.3333333333333 842.5 708.3333333333333 802.0833333333334V708.3333333333334zM625 708.3333333333334V791.6666666666667H208.3333333333333V375H291.6666666666667V635.4166666666667C291.6666666666667 675.8333333333333 324.1666666666667 708.3333333333334 364.5833333333333 708.3333333333334H625zM375 625V208.3333333333334H791.6666666666666V625H375z" />
    <glyph glyph-name="icon-edit"
      unicode="&#xF126;"
      horiz-adv-x="1000" d=" M262.5 487.5L679.1666666666666 904.1666666666666A41.66666666666666 41.66666666666666 0 0 0 737.4999999999999 904.1666666666666L904.1666666666666 737.5A41.66666666666666 41.66666666666666 0 0 0 904.1666666666666 679.1666666666666L487.4999999999999 262.4999999999999A41.66666666666666 41.66666666666666 0 0 0 458.3333333333333 249.9999999999999H291.6666666666667A41.66666666666666 41.66666666666666 0 0 0 250 291.6666666666665V458.3333333333333A41.66666666666666 41.66666666666666 0 0 0 262.5 487.4999999999999zM333.3333333333333 333.3333333333334H441.25L816.25 708.3333333333334L708.3333333333333 816.25L333.3333333333333 441.25V333.3333333333334zM750 416.6666666666668A41.66666666666666 41.66666666666666 0 0 0 833.3333333333333 416.6666666666668V166.6666666666668A83.33333333333331 83.33333333333331 0 0 0 750 83.3333333333334H166.6666666666667A83.33333333333331 83.33333333333331 0 0 0 83.3333333333333 166.6666666666668V750C83.3333333333333 795.8333333333334 120.8333333333333 833.3333333333334 166.6666666666667 833.3333333333334H416.6666666666667A41.66666666666666 41.66666666666666 0 0 0 416.6666666666667 750H166.6666666666667V166.6666666666668H750V416.6666666666668z" />
    <glyph glyph-name="icon-emotion-happy"
      unicode="&#xF127;"
      horiz-adv-x="1000" d=" M500 83.3333333333334A416.6666666666667 416.6666666666667 0 1 0 500 916.6666666666666A416.6666666666667 416.6666666666667 0 0 0 500 83.3333333333334zM500 166.6666666666668A333.33333333333326 333.33333333333326 0 1 1 500 833.3333333333334A333.33333333333326 333.33333333333326 0 0 1 500 166.6666666666668zM352.5 352.5000000000001A41.66666666666666 41.66666666666666 0 0 0 411.6666666666667 411.6666666666668A125 125 0 0 1 588.3333333333334 411.6666666666668A41.66666666666666 41.66666666666666 0 0 0 647.5 352.5000000000001A208.33333333333334 208.33333333333334 0 0 0 352.5 352.5000000000001zM375 541.6666666666667A41.66666666666666 41.66666666666666 0 1 0 375 625A41.66666666666666 41.66666666666666 0 0 0 375 541.6666666666667zM625 541.6666666666667A41.66666666666666 41.66666666666666 0 1 0 625 625A41.66666666666666 41.66666666666666 0 0 0 625 541.6666666666667z" />
    <glyph glyph-name="icon-emotion-sad"
      unicode="&#xF128;"
      horiz-adv-x="1000" d=" M500 83.3333333333334A416.6666666666667 416.6666666666667 0 1 0 500 916.6666666666666A416.6666666666667 416.6666666666667 0 0 0 500 83.3333333333334zM500 166.6666666666668A333.33333333333326 333.33333333333326 0 1 1 500 833.3333333333334A333.33333333333326 333.33333333333326 0 0 1 500 166.6666666666668zM352.5 355.8333333333334A208.33333333333334 208.33333333333334 0 0 0 647.5 355.8333333333334A41.66666666666666 41.66666666666666 0 0 0 588.3333333333334 296.6666666666667A125 125 0 0 1 411.6666666666667 296.6666666666667A41.66666666666666 41.66666666666666 0 0 0 352.5 355.8333333333333zM375 541.6666666666667A41.66666666666666 41.66666666666666 0 1 0 375 625A41.66666666666666 41.66666666666666 0 0 0 375 541.6666666666667zM625 541.6666666666667A41.66666666666666 41.66666666666666 0 1 0 625 625A41.66666666666666 41.66666666666666 0 0 0 625 541.6666666666667z" />
    <glyph glyph-name="icon-exclamation"
      unicode="&#xF129;"
      horiz-adv-x="1000" d=" M500 916.6666666666666A416.6666666666667 416.6666666666667 0 1 0 500 83.3333333333334A416.6666666666667 416.6666666666667 0 0 0 500 916.6666666666666zM500 833.3333333333334A333.33333333333326 333.33333333333326 0 1 1 500 166.6666666666668A333.33333333333326 333.33333333333326 0 0 1 500 833.3333333333334zM500 458.3333333333334A41.66666666666666 41.66666666666666 0 0 0 458.3333333333333 500V666.6666666666667A41.66666666666666 41.66666666666666 0 0 0 541.6666666666666 666.6666666666667V500A41.66666666666666 41.66666666666666 0 0 0 500 458.3333333333334zM500 291.6666666666668A41.66666666666666 41.66666666666666 0 1 0 500 375A41.66666666666666 41.66666666666666 0 0 0 500 291.6666666666668z" />
    <glyph glyph-name="icon-external-link"
      unicode="&#xF12A;"
      horiz-adv-x="1000" d=" M791.6666666666666 732.9166666666667L362.5 303.75A41.66666666666666 41.66666666666666 0 1 0 304.1666666666667 362.9166666666667L732.4999999999999 791.6666666666667H583.3333333333333A41.66666666666666 41.66666666666666 0 0 0 583.3333333333333 875H833.3333333333333A41.66666666666666 41.66666666666666 0 0 0 875 833.3333333333334V583.3333333333334A41.66666666666666 41.66666666666666 0 0 0 791.6666666666666 583.3333333333334V732.9166666666667zM708.3333333333333 416.6666666666668A41.66666666666666 41.66666666666666 0 0 0 791.6666666666666 416.6666666666668V208.3333333333334A83.33333333333331 83.33333333333331 0 0 0 708.3333333333333 125H208.3333333333333A83.33333333333331 83.33333333333331 0 0 0 125 208.3333333333334V708.3333333333334C125 754.1666666666666 162.5 791.6666666666667 208.3333333333333 791.6666666666667H416.6666666666667A41.66666666666666 41.66666666666666 0 0 0 416.6666666666667 708.3333333333334H208.3333333333333V208.3333333333334H708.3333333333333V416.6666666666668z" />
    <glyph glyph-name="icon-file-blank"
      unicode="&#xF12B;"
      horiz-adv-x="1000" d=" M250 916.6666666666666H625A41.66666666666666 41.66666666666666 0 0 0 654.1666666666666 904.1666666666669L820.8333333333333 737.5A41.66666666666666 41.66666666666666 0 0 0 833.3333333333333 708.3333333333334V166.6666666666668A83.33333333333331 83.33333333333331 0 0 0 750 83.3333333333334H250A83.33333333333331 83.33333333333331 0 0 0 166.6666666666667 166.6666666666668V833.3333333333334C166.6666666666667 879.1666666666666 204.1666666666667 916.6666666666666 250 916.6666666666666zM625 816.25V708.3333333333334H732.9166666666666L625 816.25zM750 625H625A83.33333333333331 83.33333333333331 0 0 0 541.6666666666666 708.3333333333334V833.3333333333334H250V166.6666666666668H750V625z" />
    <glyph glyph-name="icon-file-minus"
      unicode="&#xF12C;"
      horiz-adv-x="1000" d=" M250 916.6666666666666H625A41.66666666666666 41.66666666666666 0 0 0 654.1666666666666 904.1666666666669L820.8333333333333 737.5A41.66666666666666 41.66666666666666 0 0 0 833.3333333333333 708.3333333333334V166.6666666666668A83.33333333333331 83.33333333333331 0 0 0 750 83.3333333333334H250A83.33333333333331 83.33333333333331 0 0 0 166.6666666666667 166.6666666666668V833.3333333333334C166.6666666666667 879.1666666666666 204.1666666666667 916.6666666666666 250 916.6666666666666zM625 816.25V708.3333333333334H732.9166666666666L625 816.25zM750 625H625A83.33333333333331 83.33333333333331 0 0 0 541.6666666666666 708.3333333333334V833.3333333333334H250V166.6666666666668H750V625zM666.6666666666666 458.3333333333334A41.66666666666666 41.66666666666666 0 0 0 625 416.6666666666668H375A41.66666666666666 41.66666666666666 0 0 0 375 500H625A41.66666666666666 41.66666666666666 0 0 0 666.6666666666666 458.3333333333334z" />
    <glyph glyph-name="icon-file-plus"
      unicode="&#xF12D;"
      horiz-adv-x="1000" d=" M250 916.6666666666666H625A41.66666666666666 41.66666666666666 0 0 0 654.1666666666666 904.1666666666669L820.8333333333333 737.5A41.66666666666666 41.66666666666666 0 0 0 833.3333333333333 708.3333333333334V166.6666666666668A83.33333333333331 83.33333333333331 0 0 0 750 83.3333333333334H250A83.33333333333331 83.33333333333331 0 0 0 166.6666666666667 166.6666666666668V833.3333333333334C166.6666666666667 879.1666666666666 204.1666666666667 916.6666666666666 250 916.6666666666666zM625 816.25V708.3333333333334H732.9166666666666L625 816.25zM750 625H625A83.33333333333331 83.33333333333331 0 0 0 541.6666666666666 708.3333333333334V833.3333333333334H250V166.6666666666668H750V625zM541.6666666666666 458.3333333333334H625A41.66666666666666 41.66666666666666 0 0 0 625 375H541.6666666666666V291.6666666666668A41.66666666666666 41.66666666666666 0 0 0 458.3333333333333 291.6666666666668V375H375A41.66666666666666 41.66666666666666 0 0 0 375 458.3333333333334H458.3333333333333V541.6666666666667A41.66666666666666 41.66666666666666 0 0 0 541.6666666666666 541.6666666666667V458.3333333333334z" />
    <glyph glyph-name="icon-file"
      unicode="&#xF12E;"
      horiz-adv-x="1000" d=" M250 916.6666666666666H625A41.66666666666666 41.66666666666666 0 0 0 654.1666666666666 904.1666666666669L820.8333333333333 737.5A41.66666666666666 41.66666666666666 0 0 0 833.3333333333333 708.3333333333334V166.6666666666668A83.33333333333331 83.33333333333331 0 0 0 750 83.3333333333334H250A83.33333333333331 83.33333333333331 0 0 0 166.6666666666667 166.6666666666668V833.3333333333334C166.6666666666667 879.1666666666666 204.1666666666667 916.6666666666666 250 916.6666666666666zM625 816.25V708.3333333333334H732.9166666666666L625 816.25zM750 625H625A83.33333333333331 83.33333333333331 0 0 0 541.6666666666666 708.3333333333334V833.3333333333334H250V166.6666666666668H750V625zM666.6666666666666 333.3333333333334A41.66666666666666 41.66666666666666 0 0 0 625 291.6666666666668H375A41.66666666666666 41.66666666666666 0 0 0 375 375H625A41.66666666666666 41.66666666666666 0 0 0 666.6666666666666 333.3333333333334zM666.6666666666666 500A41.66666666666666 41.66666666666666 0 0 0 625 458.3333333333334H375A41.66666666666666 41.66666666666666 0 0 0 375 541.6666666666667H625A41.66666666666666 41.66666666666666 0 0 0 666.6666666666666 500zM458.3333333333333 666.6666666666667A41.66666666666666 41.66666666666666 0 0 0 416.6666666666667 625H375A41.66666666666666 41.66666666666666 0 1 0 375 708.3333333333334H416.6666666666667A41.66666666666666 41.66666666666666 0 0 0 458.3333333333333 666.6666666666667z" />
    <glyph glyph-name="icon-film"
      unicode="&#xF12F;"
      horiz-adv-x="1000" d=" M208.3333333333333 875H791.6666666666666A83.33333333333331 83.33333333333331 0 0 0 875 791.6666666666667V208.3333333333334A83.33333333333331 83.33333333333331 0 0 0 791.6666666666666 125H208.3333333333333A83.33333333333331 83.33333333333331 0 0 0 125 208.3333333333334V791.6666666666667C125 837.5 162.5 875 208.3333333333333 875zM791.6666666666666 375V458.3333333333334H708.3333333333333V375H791.6666666666666zM791.6666666666666 291.6666666666668H708.3333333333333V208.3333333333334H791.6666666666666V291.6666666666668zM208.3333333333333 375H291.6666666666667V458.3333333333334H208.3333333333333V375zM208.3333333333333 291.6666666666668V208.3333333333334H291.6666666666667V291.6666666666668H208.3333333333333zM791.6666666666666 625H708.3333333333333V541.6666666666667H791.6666666666666V625zM791.6666666666666 708.3333333333334V791.6666666666667H708.3333333333333V708.3333333333334H791.6666666666666zM208.3333333333333 625V541.6666666666667H291.6666666666667V625H208.3333333333333zM208.3333333333333 708.3333333333334H291.6666666666667V791.6666666666667H208.3333333333333V708.3333333333334zM375 541.6666666666667H625V791.6666666666667H375V541.6666666666667zM375 458.3333333333334V208.3333333333334H625V458.3333333333334H375z" />
    <glyph glyph-name="icon-filter"
      unicode="&#xF130;"
      horiz-adv-x="1000" d=" M95.8333333333333 679.1666666666667A41.66666666666666 41.66666666666666 0 0 0 83.3333333333333 708.3333333333334V875A41.66666666666666 41.66666666666666 0 0 0 125 916.6666666666666H875A41.66666666666666 41.66666666666666 0 0 0 916.6666666666666 875V708.3333333333334A41.66666666666666 41.66666666666666 0 0 0 904.1666666666666 679.1666666666667L625 399.1666666666668V291.6666666666668A41.66666666666666 41.66666666666666 0 0 0 612.4999999999999 262.5000000000001L445.8333333333333 95.8333333333334A41.66666666666666 41.66666666666666 0 0 0 375 125V399.5833333333334L95.8333333333333 678.75zM166.6666666666667 833.3333333333334V725.4166666666667L445.8333333333333 446.2500000000001A41.66666666666666 41.66666666666666 0 0 0 458.3333333333333 416.6666666666668V225.4166666666668L541.6666666666666 308.75V416.6666666666668A41.66666666666666 41.66666666666666 0 0 0 554.1666666666666 445.8333333333334L833.3333333333333 725.8333333333334V833.3333333333334H166.6666666666667z" />
    <glyph glyph-name="icon-flag"
      unicode="&#xF131;"
      horiz-adv-x="1000" d=" M166.6666666666667 333.3333333333334V125A41.66666666666666 41.66666666666666 0 0 0 83.3333333333333 125V875A41.66666666666666 41.66666666666666 0 0 0 125 916.6666666666666H479.1666666666666A41.66666666666666 41.66666666666666 0 0 0 508.3333333333333 904.1666666666669L537.9166666666666 875H875A41.66666666666666 41.66666666666666 0 0 0 912.4999999999998 814.5833333333334L796.2499999999999 583.3333333333334L911.6666666666666 352.0833333333334A41.66666666666666 41.66666666666666 0 0 0 875 291.6666666666668H520.8333333333333A41.66666666666666 41.66666666666666 0 0 0 491.6666666666667 304.1666666666668L462.0833333333333 333.3333333333334H166.6666666666667zM458.3333333333333 833.3333333333334H166.6666666666667V416.6666666666668H479.1666666666666A41.66666666666666 41.66666666666666 0 0 0 508.3333333333333 404.1666666666667L537.9166666666666 375H807.4999999999999L712.9166666666666 564.5833333333334A41.66666666666666 41.66666666666666 0 0 0 712.9166666666666 602.0833333333335L807.4999999999999 791.6666666666667H541.6666666666666V625A41.66666666666666 41.66666666666666 0 0 0 458.3333333333333 625V833.3333333333334z" />
    <glyph glyph-name="icon-folder-minus"
      unicode="&#xF132;"
      horiz-adv-x="1000" d=" M833.3333333333333 750A83.33333333333331 83.33333333333331 0 0 0 916.6666666666666 666.6666666666667V250A83.33333333333331 83.33333333333331 0 0 0 833.3333333333333 166.6666666666668H166.6666666666667A83.33333333333331 83.33333333333331 0 0 0 83.3333333333333 250V750C83.3333333333333 795.8333333333334 120.8333333333333 833.3333333333334 166.6666666666667 833.3333333333334H475.4166666666666L558.75 750H833.3333333333333zM166.6666666666667 750V250H833.3333333333333V666.6666666666667H524.5833333333333L441.25 750H166.6666666666667zM666.6666666666666 458.3333333333334A41.66666666666666 41.66666666666666 0 0 0 625 416.6666666666668H375A41.66666666666666 41.66666666666666 0 0 0 375 500H625A41.66666666666666 41.66666666666666 0 0 0 666.6666666666666 458.3333333333334z" />
    <glyph glyph-name="icon-folder-plus"
      unicode="&#xF133;"
      horiz-adv-x="1000" d=" M833.3333333333333 750A83.33333333333331 83.33333333333331 0 0 0 916.6666666666666 666.6666666666667V250A83.33333333333331 83.33333333333331 0 0 0 833.3333333333333 166.6666666666668H166.6666666666667A83.33333333333331 83.33333333333331 0 0 0 83.3333333333333 250V750C83.3333333333333 795.8333333333334 120.8333333333333 833.3333333333334 166.6666666666667 833.3333333333334H475.4166666666666L558.75 750H833.3333333333333zM166.6666666666667 750V250H833.3333333333333V666.6666666666667H524.5833333333333L441.25 750H166.6666666666667zM541.6666666666666 500H625A41.66666666666666 41.66666666666666 0 0 0 625 416.6666666666668H541.6666666666666V333.3333333333334A41.66666666666666 41.66666666666666 0 0 0 458.3333333333333 333.3333333333334V416.6666666666668H375A41.66666666666666 41.66666666666666 0 0 0 375 500H458.3333333333333V583.3333333333334A41.66666666666666 41.66666666666666 0 0 0 541.6666666666666 583.3333333333334V500z" />
    <glyph glyph-name="icon-folder"
      unicode="&#xF134;"
      horiz-adv-x="1000" d=" M833.3333333333333 750A83.33333333333331 83.33333333333331 0 0 0 916.6666666666666 666.6666666666667V250A83.33333333333331 83.33333333333331 0 0 0 833.3333333333333 166.6666666666668H166.6666666666667A83.33333333333331 83.33333333333331 0 0 0 83.3333333333333 250V750C83.3333333333333 795.8333333333334 120.8333333333333 833.3333333333334 166.6666666666667 833.3333333333334H475.4166666666666L558.75 750H833.3333333333333zM166.6666666666667 750V250H833.3333333333333V666.6666666666667H524.5833333333333L441.25 750H166.6666666666667z" />
    <glyph glyph-name="icon-globe"
      unicode="&#xF135;"
      horiz-adv-x="1000" d=" M169.1666666666666 458.3333333333334A333.33333333333326 333.33333333333326 0 0 1 384.9999999999999 187.0833333333335A770.8333333333331 770.8333333333331 0 0 0 334.1666666666667 458.3333333333334H169.1666666666666zM169.1666666666666 541.6666666666667H334.1666666666667A770.8333333333331 770.8333333333331 0 0 0 385 812.9166666666666A333.33333333333326 333.33333333333326 0 0 1 169.1666666666666 541.6666666666667zM830.8333333333334 541.6666666666667A333.33333333333326 333.33333333333326 0 0 1 615 812.9166666666666A770.8333333333331 770.8333333333331 0 0 0 665.8333333333333 541.6666666666667H830.8333333333334zM830.8333333333334 458.3333333333334H665.8333333333333A770.8333333333331 770.8333333333331 0 0 0 615 187.0833333333335A333.33333333333326 333.33333333333326 0 0 1 830.8333333333334 458.3333333333334zM417.5000000000001 458.3333333333334C424.1666666666667 293.7500000000001 468.7500000000001 166.6666666666668 500.0000000000001 166.6666666666668S575.8333333333334 293.7500000000001 582.5000000000001 458.3333333333334H417.5000000000001zM417.5000000000001 541.6666666666667H582.5C575.8333333333333 706.25 531.25 833.3333333333334 500 833.3333333333334S424.1666666666667 706.25 417.5 541.6666666666667zM500 83.3333333333334A416.6666666666667 416.6666666666667 0 1 0 500 916.6666666666666A416.6666666666667 416.6666666666667 0 0 0 500 83.3333333333334z" />
    <glyph glyph-name="icon-graph-bar"
      unicode="&#xF136;"
      horiz-adv-x="1000" d=" M833.3333333333333 83.3333333333334H166.6666666666667A83.33333333333331 83.33333333333331 0 0 0 83.3333333333333 166.6666666666668V500C83.3333333333333 545.8333333333334 120.8333333333333 583.3333333333334 166.6666666666667 583.3333333333334H333.3333333333333V666.6666666666667C333.3333333333333 712.5 370.8333333333333 750 416.6666666666667 750H583.3333333333333V833.3333333333334C583.3333333333333 879.1666666666666 620.8333333333333 916.6666666666666 666.6666666666666 916.6666666666666H833.3333333333333A83.33333333333331 83.33333333333331 0 0 0 916.6666666666666 833.3333333333334V166.6666666666668A83.33333333333331 83.33333333333331 0 0 0 833.3333333333333 83.3333333333334zM583.3333333333333 666.6666666666667H416.6666666666667V166.6666666666668H583.3333333333333V666.6666666666667zM333.3333333333333 500H166.6666666666667V166.6666666666668H333.3333333333333V500zM666.6666666666666 833.3333333333334V166.6666666666668H833.3333333333333V833.3333333333334H666.6666666666666z" />
    <glyph glyph-name="icon-grid"
      unicode="&#xF137;"
      horiz-adv-x="1000" d=" M208.3333333333333 875H375A83.33333333333331 83.33333333333331 0 0 0 458.3333333333333 791.6666666666667V625A83.33333333333331 83.33333333333331 0 0 0 375 541.6666666666667H208.3333333333333A83.33333333333331 83.33333333333331 0 0 0 125 625V791.6666666666667C125 837.5 162.5 875 208.3333333333333 875zM208.3333333333333 791.6666666666667V625H375V791.6666666666667H208.3333333333333zM625 875H791.6666666666666A83.33333333333331 83.33333333333331 0 0 0 875 791.6666666666667V625A83.33333333333331 83.33333333333331 0 0 0 791.6666666666666 541.6666666666667H625A83.33333333333331 83.33333333333331 0 0 0 541.6666666666666 625V791.6666666666667C541.6666666666666 837.5 579.1666666666666 875 625 875zM625 791.6666666666667V625H791.6666666666666V791.6666666666667H625zM208.3333333333333 458.3333333333334H375A83.33333333333331 83.33333333333331 0 0 0 458.3333333333333 375V208.3333333333334A83.33333333333331 83.33333333333331 0 0 0 375 125H208.3333333333333A83.33333333333331 83.33333333333331 0 0 0 125 208.3333333333334V375C125 420.8333333333334 162.5 458.3333333333334 208.3333333333333 458.3333333333334zM208.3333333333333 375V208.3333333333334H375V375H208.3333333333333zM625 458.3333333333334H791.6666666666666A83.33333333333331 83.33333333333331 0 0 0 875 375V208.3333333333334A83.33333333333331 83.33333333333331 0 0 0 791.6666666666666 125H625A83.33333333333331 83.33333333333331 0 0 0 541.6666666666666 208.3333333333334V375C541.6666666666666 420.8333333333334 579.1666666666666 458.3333333333334 625 458.3333333333334zM625 375V208.3333333333334H791.6666666666666V375H625z" />
    <glyph glyph-name="icon-group"
      unicode="&#xF138;"
      horiz-adv-x="1000" d=" M375 500A208.33333333333334 208.33333333333334 0 1 0 375 916.6666666666666A208.33333333333334 208.33333333333334 0 0 0 375 500zM375 583.3333333333334A125 125 0 1 1 375 833.3333333333334A125 125 0 0 1 375 583.3333333333334zM666.6666666666666 125A41.66666666666666 41.66666666666666 0 0 0 583.3333333333333 125V208.3333333333334A125 125 0 0 1 458.3333333333333 333.3333333333334H291.6666666666667A125 125 0 0 1 166.6666666666667 208.3333333333334V125A41.66666666666666 41.66666666666666 0 0 0 83.3333333333333 125V208.3333333333334A208.33333333333334 208.33333333333334 0 0 0 291.6666666666667 416.6666666666668H458.3333333333333A208.33333333333334 208.33333333333334 0 0 0 666.6666666666666 208.3333333333334V125zM708.3333333333333 333.3333333333334A41.66666666666666 41.66666666666666 0 0 0 708.3333333333333 416.6666666666668A208.33333333333334 208.33333333333334 0 0 0 916.6666666666666 208.3333333333334V125A41.66666666666666 41.66666666666666 0 0 0 833.3333333333333 125V208.3333333333334A125 125 0 0 1 708.3333333333333 333.3333333333334zM625 500A41.66666666666666 41.66666666666666 0 0 0 625 583.3333333333334A125 125 0 0 1 625 833.3333333333334A41.66666666666666 41.66666666666666 0 0 0 625 916.6666666666666A208.33333333333334 208.33333333333334 0 0 0 625 500z" />
    <glyph glyph-name="icon-hashtag"
      unicode="&#xF139;"
      horiz-adv-x="1000" d=" M459.5833333333333 666.6666666666667H623.7499999999999L667.9166666666665 843.3333333333334A41.66666666666666 41.66666666666666 0 1 0 748.7499999999999 823.3333333333334L709.5833333333334 666.6666666666667H833.3333333333333A41.66666666666666 41.66666666666666 0 0 0 833.3333333333333 583.3333333333334H688.75L647.0833333333334 416.6666666666668H750A41.66666666666666 41.66666666666666 0 1 0 750 333.3333333333334H626.2499999999999L582.0833333333333 156.25A41.66666666666666 41.66666666666666 0 1 0 501.2499999999999 176.6666666666666L540.4166666666666 333.3333333333334H376.25L332.0833333333333 156.25A41.66666666666666 41.66666666666666 0 1 0 251.25 176.6666666666666L290.4166666666667 333.3333333333334H166.6666666666667A41.66666666666666 41.66666666666666 0 0 0 166.6666666666667 416.6666666666668H311.25L352.9166666666667 583.3333333333334H250A41.66666666666666 41.66666666666666 0 0 0 250 666.6666666666667H373.75L417.9166666666667 843.3333333333334A41.66666666666666 41.66666666666666 0 1 0 498.75 823.3333333333334L459.5833333333333 666.6666666666667zM438.75 583.3333333333334L397.0833333333333 416.6666666666668H561.2499999999999L602.9166666666666 583.3333333333334H438.75z" />
    <glyph glyph-name="icon-heart"
      unicode="&#xF13A;"
      horiz-adv-x="1000" d=" M531.6666666666666 843.3333333333334A250 250 0 0 0 885 490L529.5833333333334 134.1666666666666A41.66666666666666 41.66666666666666 0 0 0 470.4166666666667 134.1666666666666L115.0000000000001 489.9999999999999A250 250 0 0 0 468.3333333333335 843.3333333333333L500.0000000000001 812.0833333333333L531.6666666666667 843.3333333333333zM826.2499999999999 548.75A166.66666666666663 166.66666666666663 0 1 1 590.4166666666665 784.5833333333334L529.5833333333331 723.3333333333334A41.66666666666666 41.66666666666666 0 0 0 470.4166666666665 723.3333333333334L409.5833333333333 784.5833333333334A166.66666666666663 166.66666666666663 0 1 1 173.75 548.75L500 222.5L826.2499999999999 548.75z" />
    <glyph glyph-name="icon-help"
      unicode="&#xF13B;"
      horiz-adv-x="1000" d=" M500 83.3333333333334A416.6666666666667 416.6666666666667 0 1 0 500 916.6666666666666A416.6666666666667 416.6666666666667 0 0 0 500 83.3333333333334zM500 166.6666666666668A333.33333333333326 333.33333333333326 0 1 1 500 833.3333333333334A333.33333333333326 333.33333333333326 0 0 1 500 166.6666666666668zM441.25 642.0833333333334A41.66666666666666 41.66666666666666 0 1 0 382.0833333333333 701.25A166.66666666666663 166.66666666666663 0 1 0 617.9166666666666 465.4166666666667L529.5833333333334 377.0833333333334A41.66666666666666 41.66666666666666 0 1 0 470.4166666666667 436.2500000000001L558.75 524.5833333333334A83.33333333333331 83.33333333333331 0 0 1 441.6666666666667 641.6666666666667zM500 250A41.66666666666666 41.66666666666666 0 1 0 500 333.3333333333334A41.66666666666666 41.66666666666666 0 0 0 500 250z" />
    <glyph glyph-name="icon-home"
      unicode="&#xF13C;"
      horiz-adv-x="1000" d=" M541.6666666666666 166.6666666666668V375H458.3333333333333V166.6666666666668A83.33333333333331 83.33333333333331 0 0 0 375 83.3333333333334H250A83.33333333333331 83.33333333333331 0 0 0 166.6666666666667 166.6666666666668V482.9166666666667L154.1666666666667 470.4166666666666A41.66666666666666 41.66666666666666 0 1 0 95.8333333333333 529.5833333333333L470.8333333333333 904.5833333333331A41.66666666666666 41.66666666666666 0 0 0 529.1666666666666 904.5833333333331L904.1666666666669 529.5833333333333A41.66666666666666 41.66666666666666 0 0 0 845.8333333333335 470.4166666666666L833.3333333333335 482.9166666666667V166.6666666666668A83.33333333333331 83.33333333333331 0 0 0 750.0000000000001 83.3333333333334H625.0000000000001A83.33333333333331 83.33333333333331 0 0 0 541.6666666666667 166.6666666666668zM750 166.6666666666668V566.25L500 816.25L250 566.25V166.6666666666668H375V375C375 420.8333333333334 412.5 458.3333333333334 458.3333333333333 458.3333333333334H541.6666666666666A83.33333333333331 83.33333333333331 0 0 0 625 375V166.6666666666668H750z" />
    <glyph glyph-name="icon-image"
      unicode="&#xF13D;"
      horiz-adv-x="1000" d=" M166.6666666666667 833.3333333333334H833.3333333333333A83.33333333333331 83.33333333333331 0 0 0 916.6666666666666 750V250A83.33333333333331 83.33333333333331 0 0 0 833.3333333333333 166.6666666666668H166.6666666666667A83.33333333333331 83.33333333333331 0 0 0 83.3333333333333 250V750C83.3333333333333 795.8333333333334 120.8333333333333 833.3333333333334 166.6666666666667 833.3333333333334zM833.3333333333333 475.4166666666667V750H166.6666666666667V475.4166666666667L345.8333333333334 654.5833333333334A41.66666666666666 41.66666666666666 0 0 0 404.1666666666667 654.5833333333334L625 433.75L720.8333333333334 529.5833333333334A41.66666666666666 41.66666666666666 0 0 0 779.1666666666666 529.5833333333334L833.3333333333333 475.4166666666667zM833.3333333333333 357.9166666666668L750 441.25L654.1666666666666 345.4166666666667A41.66666666666666 41.66666666666666 0 0 0 595.8333333333333 345.4166666666667L375 566.6666666666667L166.6666666666667 358.3333333333334V250H833.3333333333333V357.9166666666668zM625 583.3333333333334A41.66666666666666 41.66666666666666 0 1 0 625 666.6666666666667A41.66666666666666 41.66666666666666 0 0 0 625 583.3333333333334z" />
    <glyph glyph-name="icon-inbox"
      unicode="&#xF13E;"
      horiz-adv-x="1000" d=" M208.3333333333333 875H791.6666666666666A83.33333333333331 83.33333333333331 0 0 0 875 791.6666666666667V208.3333333333334A83.33333333333331 83.33333333333331 0 0 0 791.6666666666666 125H208.3333333333333A83.33333333333331 83.33333333333331 0 0 0 125 208.3333333333334V791.6666666666667C125 837.5 162.5 875 208.3333333333333 875zM208.3333333333333 458.3333333333334V208.3333333333334H791.6666666666666V458.3333333333334H692.5L632.0833333333334 337.5A83.33333333333331 83.33333333333331 0 0 0 557.5000000000001 291.6666666666668H442.5000000000001A83.33333333333331 83.33333333333331 0 0 0 367.5000000000001 337.5L307.9166666666667 458.3333333333334H208.3333333333333zM791.6666666666666 541.6666666666667V791.6666666666667H208.3333333333333V541.6666666666667H307.5A83.33333333333331 83.33333333333331 0 0 0 382.5 495.8333333333334L442.5 375H557.4999999999999L617.9166666666665 495.8333333333334A83.33333333333331 83.33333333333331 0 0 0 692.4999999999999 541.6666666666667H791.6666666666666z" />
    <glyph glyph-name="icon-information"
      unicode="&#xF13F;"
      horiz-adv-x="1000" d=" M500 83.3333333333334A416.6666666666667 416.6666666666667 0 1 0 500 916.6666666666666A416.6666666666667 416.6666666666667 0 0 0 500 83.3333333333334zM500 166.6666666666668A333.33333333333326 333.33333333333326 0 1 1 500 833.3333333333334A333.33333333333326 333.33333333333326 0 0 1 500 166.6666666666668zM500 541.6666666666667A41.66666666666666 41.66666666666666 0 0 0 541.6666666666666 500V333.3333333333334A41.66666666666666 41.66666666666666 0 0 0 458.3333333333333 333.3333333333334V500A41.66666666666666 41.66666666666666 0 0 0 500 541.6666666666667zM500 708.3333333333334A41.66666666666666 41.66666666666666 0 1 0 500 625A41.66666666666666 41.66666666666666 0 0 0 500 708.3333333333334z" />
    <glyph glyph-name="icon-key"
      unicode="&#xF140;"
      horiz-adv-x="1000" d=" M493.7499999999999 268.3333333333335A62.5 62.5 0 0 0 449.5833333333333 250H416.6666666666667V229.1666666666668C416.6666666666667 194.5833333333335 388.75 166.6666666666668 354.1666666666667 166.6666666666668H333.3333333333333V145.8333333333334C333.3333333333333 111.2500000000001 305.4166666666667 83.3333333333334 270.8333333333333 83.3333333333334H166.6666666666667A83.33333333333331 83.33333333333331 0 0 0 83.3333333333333 166.6666666666668V274.5833333333334A83.33333333333331 83.33333333333331 0 0 0 107.9166666666667 333.3333333333334L339.5833333333333 565A292.9166666666667 292.9166666666667 0 0 0 625 916.6666666666666A291.6666666666667 291.6666666666667 0 1 0 565 339.5833333333334L494.1666666666667 268.3333333333335zM540.4166666666666 432.9166666666668L564.5833333333333 425.4166666666668A208.33333333333334 208.33333333333334 0 1 1 425.4166666666667 564.5833333333334L432.9166666666666 540.4166666666667L166.6666666666667 275.0000000000001V166.6666666666668H250V187.5C250 222.0833333333333 277.9166666666667 250 312.5 250H333.3333333333333V270.8333333333334C333.3333333333333 305.4166666666667 361.25 333.3333333333334 395.8333333333333 333.3333333333334H441.25L540.4166666666666 432.9166666666668zM750 625A41.66666666666666 41.66666666666666 0 0 0 666.6666666666666 625A41.66666666666666 41.66666666666666 0 0 1 625 666.6666666666667A41.66666666666666 41.66666666666666 0 0 0 625 750A125 125 0 0 0 750 625z" />
    <glyph glyph-name="icon-link"
      unicode="&#xF141;"
      horiz-adv-x="1000" d=" M811.6666666666666 457.0833333333334A166.66666666666663 166.66666666666663 0 0 0 666.6666666666666 208.3333333333334H500A166.66666666666663 166.66666666666663 0 1 0 500 541.6666666666667H541.6666666666666A41.66666666666666 41.66666666666666 0 0 1 541.6666666666666 625H500A250 250 0 1 1 500 125H666.6666666666666A250 250 0 0 1 883.75 499.1666666666667L883.3333333333333 500A41.66666666666666 41.66666666666666 0 1 1 811.6666666666666 457.0833333333334zM188.3333333333333 542.9166666666667A166.66666666666663 166.66666666666663 0 0 0 333.3333333333333 791.6666666666667H500A166.66666666666663 166.66666666666663 0 1 0 500 458.3333333333334H458.3333333333333A41.66666666666666 41.66666666666666 0 0 1 458.3333333333333 375H500A250 250 0 1 1 500 875H333.3333333333333A250 250 0 0 1 116.25 500.8333333333334L116.6666666666667 500A41.66666666666666 41.66666666666666 0 1 1 188.3333333333333 542.9166666666667z" />
    <glyph glyph-name="icon-location"
      unicode="&#xF142;"
      horiz-adv-x="1000" d=" M235 318.3333333333334A374.99999999999994 374.99999999999994 0 1 0 764.9999999999999 318.3333333333334L529.5833333333333 82.5000000000001A41.66666666666666 41.66666666666666 0 0 0 470.4166666666666 82.5000000000001L235 318.3333333333334zM706.2499999999999 377.0833333333334A291.6666666666667 291.6666666666667 0 1 1 293.75 377.0833333333334L500 170.8333333333335L706.2499999999999 377.0833333333334zM500 416.6666666666668A166.66666666666663 166.66666666666663 0 1 0 500 750A166.66666666666663 166.66666666666663 0 0 0 500 416.6666666666668zM500 500A83.33333333333331 83.33333333333331 0 1 1 500 666.6666666666667A83.33333333333331 83.33333333333331 0 0 1 500 500z" />
    <glyph glyph-name="icon-lock-closed"
      unicode="&#xF143;"
      horiz-adv-x="1000" d=" M291.6666666666667 583.3333333333334V708.3333333333334A208.33333333333334 208.33333333333334 0 1 0 708.3333333333333 708.3333333333334V583.3333333333334H791.6666666666666A83.33333333333331 83.33333333333331 0 0 0 875 500V166.6666666666668A83.33333333333331 83.33333333333331 0 0 0 791.6666666666666 83.3333333333334H208.3333333333333A83.33333333333331 83.33333333333331 0 0 0 125 166.6666666666668V500C125 545.8333333333334 162.5 583.3333333333334 208.3333333333333 583.3333333333334H291.6666666666667zM375 583.3333333333334H625V708.3333333333334A125 125 0 0 1 375 708.3333333333334V583.3333333333334zM208.3333333333333 500V166.6666666666668H791.6666666666666V500H208.3333333333333zM500 416.6666666666668A41.66666666666666 41.66666666666666 0 0 0 541.6666666666666 375V291.6666666666668A41.66666666666666 41.66666666666666 0 0 0 458.3333333333333 291.6666666666668V375A41.66666666666666 41.66666666666666 0 0 0 500 416.6666666666668z" />
    <glyph glyph-name="icon-lock-open"
      unicode="&#xF144;"
      horiz-adv-x="1000" d=" M375 583.3333333333334H791.6666666666666A83.33333333333331 83.33333333333331 0 0 0 875 500V166.6666666666668A83.33333333333331 83.33333333333331 0 0 0 791.6666666666666 83.3333333333334H208.3333333333333A83.33333333333331 83.33333333333331 0 0 0 125 166.6666666666668V500C125 545.8333333333334 162.5 583.3333333333334 208.3333333333333 583.3333333333334H291.6666666666667V708.3333333333334A208.33333333333334 208.33333333333334 0 1 0 708.3333333333333 708.3333333333334A41.66666666666666 41.66666666666666 0 0 0 625 708.3333333333334A125 125 0 0 1 375 708.3333333333334V583.3333333333334zM208.3333333333333 500V166.6666666666668H791.6666666666666V500H208.3333333333333zM500 416.6666666666668A41.66666666666666 41.66666666666666 0 0 0 541.6666666666666 375V291.6666666666668A41.66666666666666 41.66666666666666 0 0 0 458.3333333333333 291.6666666666668V375A41.66666666666666 41.66666666666666 0 0 0 500 416.6666666666668z" />
    <glyph glyph-name="icon-mail"
      unicode="&#xF145;"
      horiz-adv-x="1000" d=" M166.6666666666667 833.3333333333334H833.3333333333333A83.33333333333331 83.33333333333331 0 0 0 916.6666666666666 750V250A83.33333333333331 83.33333333333331 0 0 0 833.3333333333333 166.6666666666668H166.6666666666667A83.33333333333331 83.33333333333331 0 0 0 83.3333333333333 250V750C83.3333333333333 795.8333333333334 120.8333333333333 833.3333333333334 166.6666666666667 833.3333333333334zM833.3333333333333 692.5V750H166.6666666666667V692.5L500 525.8333333333335L833.3333333333333 692.5zM833.3333333333333 599.1666666666666L518.7499999999999 442.0833333333334A41.66666666666666 41.66666666666666 0 0 0 481.2499999999999 442.0833333333334L166.6666666666667 599.1666666666667V250H833.3333333333333V599.1666666666667z" />
    <glyph glyph-name="icon-map"
      unicode="&#xF146;"
      horiz-adv-x="1000" d=" M583.3333333333333 765.8333333333334L416.6666666666667 682.5V234.1666666666668L583.3333333333333 317.5000000000001V765.8333333333334zM666.6666666666666 765.8333333333334V317.5000000000001L833.3333333333333 234.1666666666668V682.5L666.6666666666666 765.8333333333334zM333.3333333333333 682.5L166.6666666666667 765.8333333333334V317.5000000000001L333.3333333333333 234.1666666666668V682.5zM625 245L393.75 129.1666666666668A41.66666666666666 41.66666666666666 0 0 0 356.25 129.1666666666668L106.2499999999999 254.1666666666668A41.66666666666666 41.66666666666666 0 0 0 83.3333333333333 291.6666666666668V833.3333333333334A41.66666666666666 41.66666666666666 0 0 0 143.75 870.8333333333334L375 754.5833333333334L606.25 870A41.66666666666666 41.66666666666666 0 0 0 643.75 870L893.7500000000001 745A41.66666666666666 41.66666666666666 0 0 0 916.6666666666666 708.3333333333334V166.6666666666668A41.66666666666666 41.66666666666666 0 0 0 856.25 129.5833333333334L625 245z" />
    <glyph glyph-name="icon-menu"
      unicode="&#xF147;"
      horiz-adv-x="1000" d=" M166.6666666666667 791.6666666666667H833.3333333333333A41.66666666666666 41.66666666666666 0 0 0 833.3333333333333 708.3333333333334H166.6666666666667A41.66666666666666 41.66666666666666 0 1 0 166.6666666666667 791.6666666666667zM166.6666666666667 541.6666666666667H833.3333333333333A41.66666666666666 41.66666666666666 0 0 0 833.3333333333333 458.3333333333334H166.6666666666667A41.66666666666666 41.66666666666666 0 0 0 166.6666666666667 541.6666666666667zM166.6666666666667 291.6666666666668H833.3333333333333A41.66666666666666 41.66666666666666 0 0 0 833.3333333333333 208.3333333333334H166.6666666666667A41.66666666666666 41.66666666666666 0 0 0 166.6666666666667 291.6666666666668z" />
    <glyph glyph-name="icon-microphone"
      unicode="&#xF148;"
      horiz-adv-x="1000" d=" M541.6666666666666 210.8333333333334V125H666.6666666666666A41.66666666666666 41.66666666666666 0 0 0 666.6666666666666 41.6666666666667H333.3333333333333A41.66666666666666 41.66666666666666 0 0 0 333.3333333333333 125H458.3333333333333V210.8333333333334A333.33333333333326 333.33333333333326 0 0 0 166.6666666666667 541.6666666666667A41.66666666666666 41.66666666666666 0 0 0 250 541.6666666666667A250 250 0 1 1 750 541.6666666666667A41.66666666666666 41.66666666666666 0 0 0 833.3333333333333 541.6666666666667A333.33333333333326 333.33333333333326 0 0 0 541.6666666666666 210.8333333333334zM500 958.3333333333334A166.66666666666663 166.66666666666663 0 0 0 666.6666666666666 791.6666666666667V541.6666666666667A166.66666666666663 166.66666666666663 0 1 0 333.3333333333333 541.6666666666667V791.6666666666667A166.66666666666663 166.66666666666663 0 0 0 500 958.3333333333334zM500 875A83.33333333333331 83.33333333333331 0 0 1 416.6666666666667 791.6666666666667V541.6666666666667A83.33333333333331 83.33333333333331 0 1 1 583.3333333333333 541.6666666666667V791.6666666666667A83.33333333333331 83.33333333333331 0 0 1 500 875z" />
    <glyph glyph-name="icon-minus-circle"
      unicode="&#xF149;"
      horiz-adv-x="1000" d=" M500 83.3333333333334A416.6666666666667 416.6666666666667 0 1 0 500 916.6666666666666A416.6666666666667 416.6666666666667 0 0 0 500 83.3333333333334zM500 166.6666666666668A333.33333333333326 333.33333333333326 0 1 1 500 833.3333333333334A333.33333333333326 333.33333333333326 0 0 1 500 166.6666666666668zM666.6666666666666 500A41.66666666666666 41.66666666666666 0 0 0 625 458.3333333333334H375A41.66666666666666 41.66666666666666 0 0 0 375 541.6666666666667H625A41.66666666666666 41.66666666666666 0 0 0 666.6666666666666 500z" />
    <glyph glyph-name="icon-minus-square"
      unicode="&#xF14A;"
      horiz-adv-x="1000" d=" M208.3333333333333 875H791.6666666666666A83.33333333333331 83.33333333333331 0 0 0 875 791.6666666666667V208.3333333333334A83.33333333333331 83.33333333333331 0 0 0 791.6666666666666 125H208.3333333333333A83.33333333333331 83.33333333333331 0 0 0 125 208.3333333333334V791.6666666666667C125 837.5 162.5 875 208.3333333333333 875zM208.3333333333333 791.6666666666667V208.3333333333334H791.6666666666666V791.6666666666667H208.3333333333333zM666.6666666666666 500A41.66666666666666 41.66666666666666 0 0 0 625 458.3333333333334H375A41.66666666666666 41.66666666666666 0 0 0 375 541.6666666666667H625A41.66666666666666 41.66666666666666 0 0 0 666.6666666666666 500z" />
    <glyph glyph-name="icon-minus"
      unicode="&#xF14B;"
      horiz-adv-x="1000" d=" M708.3333333333333 541.6666666666667A41.66666666666666 41.66666666666666 0 0 0 708.3333333333333 458.3333333333334H291.6666666666667A41.66666666666666 41.66666666666666 0 0 0 291.6666666666667 541.6666666666667H708.3333333333333z" />
    <glyph glyph-name="icon-mobile"
      unicode="&#xF14C;"
      horiz-adv-x="1000" d=" M333.3333333333333 916.6666666666666H666.6666666666666A83.33333333333331 83.33333333333331 0 0 0 750 833.3333333333334V166.6666666666668A83.33333333333331 83.33333333333331 0 0 0 666.6666666666666 83.3333333333334H333.3333333333333A83.33333333333331 83.33333333333331 0 0 0 250 166.6666666666668V833.3333333333334C250 879.1666666666666 287.5 916.6666666666666 333.3333333333333 916.6666666666666zM333.3333333333333 833.3333333333334V166.6666666666668H666.6666666666666V833.3333333333334H333.3333333333333zM500 250A41.66666666666666 41.66666666666666 0 1 0 500 333.3333333333334A41.66666666666666 41.66666666666666 0 0 0 500 250z" />
    <glyph glyph-name="icon-moon"
      unicode="&#xF14D;"
      horiz-adv-x="1000" d=" M398.75 859.1666666666667A333.33333333333326 333.33333333333326 0 0 1 832.0833333333333 425.8333333333334A41.66666666666666 41.66666666666666 0 0 0 886.6666666666665 371.6666666666667A416.6666666666667 416.6666666666667 0 1 0 344.9999999999999 913.3333333333331A41.66666666666666 41.66666666666666 0 0 0 399.1666666666666 859.1666666666666zM295.8333333333333 790A333.33333333333326 333.33333333333326 0 1 1 762.5 322.0833333333334A416.6666666666667 416.6666666666667 0 0 0 295 790z" />
    <glyph glyph-name="icon-more-horiz"
      unicode="&#xF14E;"
      horiz-adv-x="1000" d=" M166.6666666666667 375A125 125 0 1 0 166.6666666666667 625A125 125 0 0 0 166.6666666666667 375zM166.6666666666667 458.3333333333334A41.66666666666666 41.66666666666666 0 1 1 166.6666666666667 541.6666666666667A41.66666666666666 41.66666666666666 0 0 1 166.6666666666667 458.3333333333334zM500 375A125 125 0 1 0 500 625A125 125 0 0 0 500 375zM500 458.3333333333334A41.66666666666666 41.66666666666666 0 1 1 500 541.6666666666667A41.66666666666666 41.66666666666666 0 0 1 500 458.3333333333334zM833.3333333333333 375A125 125 0 1 0 833.3333333333333 625A125 125 0 0 0 833.3333333333333 375zM833.3333333333333 458.3333333333334A41.66666666666666 41.66666666666666 0 1 1 833.3333333333333 541.6666666666667A41.66666666666666 41.66666666666666 0 0 1 833.3333333333333 458.3333333333334z" />
    <glyph glyph-name="icon-music"
      unicode="&#xF14F;"
      horiz-adv-x="1000" d=" M333.3333333333333 394.1666666666668V750A41.66666666666666 41.66666666666666 0 0 0 365 790.4166666666666L864.9999999999999 915.4166666666666A41.66666666666666 41.66666666666666 0 0 0 916.6666666666666 875V375A166.66666666666663 166.66666666666663 0 1 0 833.3333333333333 519.1666666666667V821.6666666666666L416.6666666666667 717.5V250A166.66666666666663 166.66666666666663 0 1 0 333.3333333333333 394.1666666666668zM250 166.6666666666668A83.33333333333331 83.33333333333331 0 1 1 250 333.3333333333334A83.33333333333331 83.33333333333331 0 0 1 250 166.6666666666668zM750 291.6666666666668A83.33333333333331 83.33333333333331 0 1 1 750 458.3333333333334A83.33333333333331 83.33333333333331 0 0 1 750 291.6666666666668z" />
    <glyph glyph-name="icon-news"
      unicode="&#xF150;"
      horiz-adv-x="1000" d=" M750 125H291.6666666666667A166.66666666666663 166.66666666666663 0 0 0 125 291.6666666666668V791.6666666666667C125 837.5 162.5 875 208.3333333333333 875H625A83.33333333333331 83.33333333333331 0 0 0 708.3333333333333 791.6666666666667H791.6666666666666A83.33333333333331 83.33333333333331 0 0 0 875 708.3333333333334V250A125 125 0 0 0 750 125zM625 250V791.6666666666667H208.3333333333333V291.6666666666668C208.3333333333333 245.8333333333334 245.8333333333334 208.3333333333334 291.6666666666667 208.3333333333334H632.0833333333333A125 125 0 0 0 625 250zM333.3333333333333 375H500A41.66666666666666 41.66666666666666 0 0 0 500 291.6666666666668H333.3333333333333A41.66666666666666 41.66666666666666 0 0 0 333.3333333333333 375zM333.3333333333333 541.6666666666667H500A41.66666666666666 41.66666666666666 0 0 0 500 458.3333333333334H333.3333333333333A41.66666666666666 41.66666666666666 0 0 0 333.3333333333333 541.6666666666667zM333.3333333333333 708.3333333333334H500A41.66666666666666 41.66666666666666 0 0 0 500 625H333.3333333333333A41.66666666666666 41.66666666666666 0 1 0 333.3333333333333 708.3333333333334zM708.3333333333333 250A41.66666666666666 41.66666666666666 0 0 1 791.6666666666666 250V708.3333333333334H708.3333333333333V250z" />
    <glyph glyph-name="icon-notification"
      unicode="&#xF151;"
      horiz-adv-x="1000" d=" M625 208.3333333333334A125 125 0 0 0 375 208.3333333333334H166.6666666666667A41.66666666666666 41.66666666666666 0 0 0 166.6666666666667 291.6666666666668H208.3333333333333V541.6666666666667A291.6666666666667 291.6666666666667 0 0 0 375.8333333333333 805.8333333333334A125 125 0 0 0 624.1666666666666 805.8333333333334A291.6666666666667 291.6666666666667 0 0 0 791.6666666666666 541.6666666666667V291.6666666666668H833.3333333333333A41.66666666666666 41.66666666666666 0 0 0 833.3333333333333 208.3333333333334H625zM458.3333333333333 208.3333333333334A41.66666666666666 41.66666666666666 0 0 1 541.6666666666666 208.3333333333334H458.3333333333333zM458.3333333333333 745.8333333333334A208.33333333333334 208.33333333333334 0 0 1 291.6666666666667 541.6666666666667V291.6666666666668H708.3333333333333V541.6666666666667A208.33333333333334 208.33333333333334 0 0 1 541.6666666666666 745.8333333333334V791.6666666666667A41.66666666666666 41.66666666666666 0 0 1 458.3333333333333 791.6666666666667V745.8333333333334z" />
    <glyph glyph-name="icon-plus-circle"
      unicode="&#xF152;"
      horiz-adv-x="1000" d=" M500 83.3333333333334A416.6666666666667 416.6666666666667 0 1 0 500 916.6666666666666A416.6666666666667 416.6666666666667 0 0 0 500 83.3333333333334zM500 166.6666666666668A333.33333333333326 333.33333333333326 0 1 1 500 833.3333333333334A333.33333333333326 333.33333333333326 0 0 1 500 166.6666666666668zM541.6666666666666 541.6666666666667H625A41.66666666666666 41.66666666666666 0 0 0 625 458.3333333333334H541.6666666666666V375A41.66666666666666 41.66666666666666 0 0 0 458.3333333333333 375V458.3333333333334H375A41.66666666666666 41.66666666666666 0 0 0 375 541.6666666666667H458.3333333333333V625A41.66666666666666 41.66666666666666 0 0 0 541.6666666666666 625V541.6666666666667z" />
    <glyph glyph-name="icon-plus-square"
      unicode="&#xF153;"
      horiz-adv-x="1000" d=" M208.3333333333333 875H791.6666666666666A83.33333333333331 83.33333333333331 0 0 0 875 791.6666666666667V208.3333333333334A83.33333333333331 83.33333333333331 0 0 0 791.6666666666666 125H208.3333333333333A83.33333333333331 83.33333333333331 0 0 0 125 208.3333333333334V791.6666666666667C125 837.5 162.5 875 208.3333333333333 875zM208.3333333333333 791.6666666666667V208.3333333333334H791.6666666666666V791.6666666666667H208.3333333333333zM541.6666666666666 541.6666666666667H625A41.66666666666666 41.66666666666666 0 0 0 625 458.3333333333334H541.6666666666666V375A41.66666666666666 41.66666666666666 0 0 0 458.3333333333333 375V458.3333333333334H375A41.66666666666666 41.66666666666666 0 0 0 375 541.6666666666667H458.3333333333333V625A41.66666666666666 41.66666666666666 0 0 0 541.6666666666666 625V541.6666666666667z" />
    <glyph glyph-name="icon-plus"
      unicode="&#xF154;"
      horiz-adv-x="1000" d=" M708.3333333333333 541.6666666666667A41.66666666666666 41.66666666666666 0 0 0 708.3333333333333 458.3333333333334H541.6666666666666V291.6666666666668A41.66666666666666 41.66666666666666 0 0 0 458.3333333333333 291.6666666666668V458.3333333333334H291.6666666666667A41.66666666666666 41.66666666666666 0 0 0 291.6666666666667 541.6666666666667H458.3333333333333V708.3333333333334A41.66666666666666 41.66666666666666 0 0 0 541.6666666666666 708.3333333333334V541.6666666666667H708.3333333333333z" />
    <glyph glyph-name="icon-print"
      unicode="&#xF155;"
      horiz-adv-x="1000" d=" M750 250V166.6666666666668A83.33333333333331 83.33333333333331 0 0 0 666.6666666666666 83.3333333333334H333.3333333333333A83.33333333333331 83.33333333333331 0 0 0 250 166.6666666666668V250H166.6666666666667A83.33333333333331 83.33333333333331 0 0 0 83.3333333333333 333.3333333333334V583.3333333333334C83.3333333333333 629.1666666666667 120.8333333333333 666.6666666666667 166.6666666666667 666.6666666666667H250V833.3333333333334C250 879.1666666666666 287.5 916.6666666666666 333.3333333333333 916.6666666666666H666.6666666666666A83.33333333333331 83.33333333333331 0 0 0 750 833.3333333333334V666.6666666666667H833.3333333333333A83.33333333333331 83.33333333333331 0 0 0 916.6666666666666 583.3333333333334V333.3333333333334A83.33333333333331 83.33333333333331 0 0 0 833.3333333333333 250H750zM750 333.3333333333334H833.3333333333333V583.3333333333334H166.6666666666667V333.3333333333334H250V416.6666666666668C250 462.5 287.5 500 333.3333333333333 500H666.6666666666666A83.33333333333331 83.33333333333331 0 0 0 750 416.6666666666668V333.3333333333334zM666.6666666666666 666.6666666666667V833.3333333333334H333.3333333333333V666.6666666666667H666.6666666666666zM333.3333333333333 416.6666666666668V166.6666666666668H666.6666666666666V416.6666666666668H333.3333333333333z" />
    <glyph glyph-name="icon-puzzle"
      unicode="&#xF156;"
      horiz-adv-x="1000" d=" M708.3333333333333 83.3333333333334A83.33333333333331 83.33333333333331 0 0 0 625 166.6666666666668V208.3333333333334A41.66666666666666 41.66666666666666 0 0 1 583.3333333333333 250A41.66666666666666 41.66666666666666 0 0 1 541.6666666666666 208.3333333333334V166.6666666666668A83.33333333333331 83.33333333333331 0 0 0 458.3333333333333 83.3333333333334H333.3333333333333A83.33333333333331 83.33333333333331 0 0 0 250 166.6666666666668V291.6666666666668H208.3333333333333A125 125 0 1 0 208.3333333333333 541.6666666666667H250V666.6666666666667C250 712.9166666666667 287.5 750 333.3333333333333 750H458.3333333333333V791.6666666666667A125 125 0 1 0 708.3333333333333 791.6666666666667V750H833.3333333333333A83.33333333333331 83.33333333333331 0 0 0 916.6666666666666 666.6666666666667V541.6666666666667A83.33333333333331 83.33333333333331 0 0 0 833.3333333333333 458.3333333333334H791.6666666666666A41.66666666666666 41.66666666666666 0 0 1 750 416.6666666666668A41.66666666666666 41.66666666666666 0 0 1 791.6666666666666 375H833.3333333333333A83.33333333333331 83.33333333333331 0 0 0 916.6666666666666 291.6666666666668V166.6666666666668A83.33333333333331 83.33333333333331 0 0 0 833.3333333333333 83.3333333333334H708.3333333333333zM833.3333333333333 166.6666666666668V291.6666666666668H791.6666666666666A125 125 0 1 0 791.6666666666666 541.6666666666667H833.3333333333333V666.6666666666667H708.3333333333333A83.33333333333331 83.33333333333331 0 0 0 625 750V791.6666666666667A41.66666666666666 41.66666666666666 0 0 1 583.3333333333333 833.3333333333334A41.66666666666666 41.66666666666666 0 0 1 541.6666666666666 791.6666666666667V750A83.33333333333331 83.33333333333331 0 0 0 458.3333333333333 666.6666666666667H333.3333333333333V541.6666666666667A83.33333333333331 83.33333333333331 0 0 0 250 458.3333333333334H208.3333333333333A41.66666666666666 41.66666666666666 0 0 1 166.6666666666667 416.6666666666668A41.66666666666666 41.66666666666666 0 0 1 208.3333333333333 375H250A83.33333333333331 83.33333333333331 0 0 0 333.3333333333333 291.6666666666668V166.6666666666668H458.3333333333333V208.3333333333334A125 125 0 1 0 708.3333333333333 208.3333333333334V166.6666666666668H833.3333333333333z" />
    <glyph glyph-name="icon-refresh"
      unicode="&#xF157;"
      horiz-adv-x="1000" d=" M250 220.8333333333334V125A41.66666666666666 41.66666666666666 0 0 0 166.6666666666667 125V333.3333333333334A41.66666666666666 41.66666666666666 0 0 0 208.3333333333333 375H416.6666666666667A41.66666666666666 41.66666666666666 0 1 0 416.6666666666667 291.6666666666668H295.8333333333333A291.6666666666667 291.6666666666667 0 0 1 791.6666666666666 500A41.66666666666666 41.66666666666666 0 1 0 875 500A374.99999999999994 374.99999999999994 0 0 0 250 220.8333333333334zM750 779.1666666666667V875A41.66666666666666 41.66666666666666 0 0 0 833.3333333333333 875V666.6666666666667A41.66666666666666 41.66666666666666 0 0 0 791.6666666666666 625H583.3333333333333A41.66666666666666 41.66666666666666 0 0 0 583.3333333333333 708.3333333333334H704.1666666666665A291.6666666666667 291.6666666666667 0 0 1 208.3333333333333 500A41.66666666666666 41.66666666666666 0 1 0 125 500A374.99999999999994 374.99999999999994 0 0 0 750 779.1666666666667z" />
    <glyph glyph-name="icon-repeat"
      unicode="&#xF158;"
      horiz-adv-x="1000" d=" M225.4166666666667 333.3333333333334H750A83.33333333333331 83.33333333333331 0 0 1 833.3333333333333 416.6666666666668A41.66666666666666 41.66666666666666 0 0 0 916.6666666666666 416.6666666666668A166.66666666666663 166.66666666666663 0 0 0 750 250H225.4166666666667L321.25 154.1666666666666A41.66666666666666 41.66666666666666 0 0 0 262.0833333333333 95.8333333333334L95.4166666666667 262.5000000000001A41.66666666666666 41.66666666666666 0 0 0 95.4166666666667 320.8333333333334L262.0833333333333 487.5A41.66666666666666 41.66666666666666 0 1 0 321.25 429.1666666666667L225 333.3333333333334zM250 666.6666666666667A83.33333333333331 83.33333333333331 0 0 1 166.6666666666667 583.3333333333334A41.66666666666666 41.66666666666666 0 0 0 83.3333333333333 583.3333333333334A166.66666666666663 166.66666666666663 0 0 0 250 750H774.5833333333333L678.7499999999999 845.8333333333334A41.66666666666666 41.66666666666666 0 1 0 737.9166666666666 904.1666666666666L904.5833333333334 737.5A41.66666666666666 41.66666666666666 0 0 0 904.5833333333334 679.1666666666666L737.9166666666666 512.5A41.66666666666666 41.66666666666666 0 0 0 678.7499999999999 570.8333333333333L775 666.6666666666667H250z" />
    <glyph glyph-name="icon-rocket"
      unicode="&#xF159;"
      horiz-adv-x="1000" d=" M675.4166666666666 293.7500000000001A208.33333333333334 208.33333333333334 0 0 0 507.9166666666667 89.5833333333334L347.5000000000001 57.5A41.66666666666666 41.66666666666666 0 0 0 310.0000000000001 68.75L280.4166666666667 97.9166666666666A83.33333333333331 83.33333333333331 0 0 0 280.4166666666667 215.8333333333334L340.4166666666668 276.25A548.75 548.75 0 0 0 281.2500000000001 335L221.25 275.0000000000001A83.33333333333331 83.33333333333331 0 0 0 103.3333333333333 275.0000000000001L74.1666666666666 304.1666666666668A41.66666666666666 41.66666666666666 0 0 0 62.5 341.6666666666668L94.5833333333333 502.5000000000001A208.33333333333334 208.33333333333334 0 0 0 298.75 670H334.5833333333333A544.5833333333334 544.5833333333334 0 0 0 868.75 897.9166666666666A41.66666666666666 41.66666666666666 0 0 0 903.3333333333331 863.3333333333334A540.8333333333333 540.8333333333333 0 0 0 674.9999999999999 329.1666666666667V293.7499999999999zM491.6666666666667 171.25A125 125 0 0 1 592.0833333333334 293.7500000000001V352.0833333333334A41.66666666666666 41.66666666666666 0 0 0 611.6666666666667 387.0833333333334A459.9999999999999 459.9999999999999 0 0 1 825 819.5833333333334A457.4999999999999 457.4999999999999 0 0 1 392.5 606.25A41.66666666666666 41.66666666666666 0 0 0 357.0833333333333 586.6666666666667H298.75A125 125 0 0 1 176.25 486.6666666666666L148.75 347.5L162.5 333.75L255.8333333333334 427.0833333333334A41.66666666666666 41.66666666666666 0 0 0 319.1666666666667 422.0833333333334A461.6666666666666 461.6666666666666 0 0 1 427.5 313.7500000000001A41.66666666666666 41.66666666666666 0 0 0 432.5 250.4166666666668L339.1666666666666 157.0833333333335L352.9166666666666 143.3333333333336L491.6666666666666 171.2500000000004zM625 583.3333333333334A41.66666666666666 41.66666666666666 0 1 0 625 666.6666666666667A41.66666666666666 41.66666666666666 0 0 0 625 583.3333333333334z" />
    <glyph glyph-name="icon-search"
      unicode="&#xF15A;"
      horiz-adv-x="1000" d=" M680 379.1666666666668L904.5833333333334 154.1666666666666A41.66666666666666 41.66666666666666 0 0 0 845.4166666666666 95.8333333333334L621.25 320A333.33333333333326 333.33333333333326 0 1 0 680 378.75zM416.6666666666667 333.3333333333334A250 250 0 1 1 416.6666666666667 833.3333333333334A250 250 0 0 1 416.6666666666667 333.3333333333334z" />
    <glyph glyph-name="icon-server"
      unicode="&#xF15B;"
      horiz-adv-x="1000" d=" M208.3333333333333 875H791.6666666666666A83.33333333333331 83.33333333333331 0 0 0 875 791.6666666666667V208.3333333333334A83.33333333333331 83.33333333333331 0 0 0 791.6666666666666 125H208.3333333333333A83.33333333333331 83.33333333333331 0 0 0 125 208.3333333333334V791.6666666666667C125 837.5 162.5 875 208.3333333333333 875zM791.6666666666666 541.6666666666667V791.6666666666667H208.3333333333333V541.6666666666667H791.6666666666666zM791.6666666666666 458.3333333333334H208.3333333333333V208.3333333333334H791.6666666666666V458.3333333333334zM333.3333333333333 625A41.66666666666666 41.66666666666666 0 1 0 333.3333333333333 708.3333333333334A41.66666666666666 41.66666666666666 0 0 0 333.3333333333333 625zM333.3333333333333 291.6666666666668A41.66666666666666 41.66666666666666 0 1 0 333.3333333333333 375A41.66666666666666 41.66666666666666 0 0 0 333.3333333333333 291.6666666666668z" />
    <glyph glyph-name="icon-speaker"
      unicode="&#xF15C;"
      horiz-adv-x="1000" d=" M250 916.6666666666666H750A83.33333333333331 83.33333333333331 0 0 0 833.3333333333333 833.3333333333334V166.6666666666668A83.33333333333331 83.33333333333331 0 0 0 750 83.3333333333334H250A83.33333333333331 83.33333333333331 0 0 0 166.6666666666667 166.6666666666668V833.3333333333334C166.6666666666667 879.1666666666666 204.1666666666667 916.6666666666666 250 916.6666666666666zM250 833.3333333333334V166.6666666666668H750V833.3333333333334H250zM500 250A166.66666666666663 166.66666666666663 0 1 0 500 583.3333333333334A166.66666666666663 166.66666666666663 0 0 0 500 250zM500 333.3333333333334A83.33333333333331 83.33333333333331 0 1 1 500 500A83.33333333333331 83.33333333333331 0 0 1 500 333.3333333333334zM500 666.6666666666667A41.66666666666666 41.66666666666666 0 1 0 500 750A41.66666666666666 41.66666666666666 0 0 0 500 666.6666666666667z" />
    <glyph glyph-name="icon-star"
      unicode="&#xF15D;"
      horiz-adv-x="1000" d=" M254.1666666666667 84.1666666666667A41.66666666666666 41.66666666666666 0 0 0 193.75 128.3333333333333L236.6666666666667 379.5833333333334L54.1666666666667 557.0833333333333A41.66666666666666 41.66666666666666 0 0 0 77.5 628.3333333333333L329.5833333333333 665L442.0833333333333 893.3333333333333A41.66666666666666 41.66666666666666 0 0 0 517.0833333333333 893.3333333333333L629.5833333333333 665L882.0833333333333 628.3333333333333A41.66666666666666 41.66666666666666 0 0 0 904.9999999999998 557.5L722.5 379.5833333333334L765.8333333333333 128.3333333333333A41.66666666666666 41.66666666666666 0 0 0 704.9999999999999 84.1666666666667L479.9999999999999 202.9166666666668L254.1666666666666 84.1666666666667zM460.4166666666667 287.0833333333334A41.66666666666666 41.66666666666666 0 0 0 499.1666666666666 287.0833333333334L669.1666666666667 197.5000000000001L636.6666666666667 387.0833333333335A41.66666666666666 41.66666666666666 0 0 0 648.75 423.7500000000003L786.25 557.9166666666669L596.2500000000001 585.8333333333335A41.66666666666666 41.66666666666666 0 0 0 564.5833333333334 608.3333333333335L479.5833333333334 780.8333333333335L394.5833333333333 608.3333333333333A41.66666666666666 41.66666666666666 0 0 0 363.3333333333333 585.8333333333333L172.9166666666667 557.9166666666666L310.4166666666667 423.75A41.66666666666666 41.66666666666666 0 0 0 322.9166666666667 387.0833333333333L290 197.5L460.4166666666667 287.0833333333333z" />
    </font>
</defs>
</svg>
